EXSite.pl - Portal ze wszystkim Mamy tutaj wszystko

NIE MASZ JESZCZE KONTA? ZAREJESTRUJ SIĘ ZA DARMO!   
Przypomnij hasło X

Oczekiwanie / Wake (2009) PL.DVDRip.XviD-D4NT3 [691 MB] | Lektor PL | +RMVB

Dodał: kuros90 19 Sierpień 2012 10:27


Oczekiwanie / Wake (2009) PL.DVDRip.XviD-D4NT3 [691 MB] | Lektor PL | +RMVB

Oczekiwanie / Wake (2009) PL.DVDRip.XviD-D4NT3 [691 MB] | Lektor PL | +RMVB

OPIS
Kiedy rzeczy idą nie tak jak powinny Carys Reitman robi to co każda współczesna a zarazem emocjonalnie izolująca się dziewczyna - idzie na pogrzeb nieznanej osoby. Na jednym z takich pogrzebów poznaje Tylera, który stracił właśnie narzeczoną. I wtedy po raz pierwszy Carys czuje z kimś więź. Szukając odpowiedzi spotyka się ze swoją matką by stawić czoła przeszłości.

INFORMACJE
TYTUŁ FILMU: Oczekiwanie / Wake
PRODUKCJA: USA
GATUNEK: Komedia, Melodramat, Thriller
CZAS TRWANIA: 97 Minut
DATA PREMIERY: 25.02.2009 - świat
REŻYSERIA: Ellie Kanner
SCENARIUSZ: Lennox Wiseley
OBSADA: Jane Seymour, Danny Masterson, Bijou Phillips, Ian Somerhalder

DANE TECHNICZNE
NAZWA RELEASU: Oczekiwanie / Wake (2009) PL.DVDRip.XviD-D4NT3 [691 MB] | Lektor PL
PARAMETRY: Video Source: RUS - 640x352, XViD ~889 kbps; Audio - MP3 ~128 kbps
DODATKOWE INFO: Lektor PL

SCREENY
Oczekiwanie / Wake (2009) PL.DVDRip.XviD-D4NT3 [691 MB] | Lektor PL | +RMVB
Oczekiwanie / Wake (2009) PL.DVDRip.XviD-D4NT3 [691 MB] | Lektor PL | +RMVB
Oczekiwanie / Wake (2009) PL.DVDRip.XviD-D4NT3 [691 MB] | Lektor PL | +RMVB

Party po 400 MB (W przypadku większych plików party po 1 GB) lub film niespakowany
Można pobierać przemiennie
Na wszystkich serwerach ten sam film(release)
Dane Naprawcze 5%
Bez hasła
Pojedyncze pakowanie
Archiwa zawierają sam film i nic więcej


DOWNLOAD
Uwaga! Linki nie zakodowane tylko dla zarejestrowanych użytkowników!

Nie masz konta? Zarejestruj się za darmo!
----------------
Links are not encoded only for registered users only! Plese login or register!


+RMVB

DANE TECHNICZNE
Format                                   : RealMedia
File size                                : 304 MiB
Duration                                 : 1h 33mn
Overall bit rate                         : 448 Kbps

Video
ID                                       : 1
Format                                   : RealVideo 4
Codec ID                                 : RV40
Codec ID/Info                            : Based on AVC (H.264), Real Player 9
Duration                                 : 1h 33mn
Bit rate                                 : 384 Kbps
Width                                    : 640 pixels
Height                                   : 352 pixels
Display aspect ratio                     : 16:9
Frame rate                               : 25.000 fps
Bits/(Pixel*Frame)                       : 0.068
Stream size                              : 256 MiB (84%)

Audio
ID                                       : 0
Format                                   : Cooker
Codec ID                                 : cook
Codec ID/Info                            : Based on G.722.1, Real Player 6
Duration                                 : 1h 33mn
Bit rate                                 : 64.1 Kbps
Channel(s)                               : 2 channels
Sampling rate                            : 44.1 KHz
Bit depth                                : 16 bits
Stream size                              : 42.7 MiB (14%)


DOWNLOAD
Uwaga! Linki nie zakodowane tylko dla zarejestrowanych użytkowników!

Nie masz konta? Zarejestruj się za darmo!
----------------
Links are not encoded only for registered users only! Plese login or register!

Informacje

Jeżeli chcesz skomentować artykuł musisz być zarejestrowany na stronie.