EXSite.pl - Portal ze wszystkim Mamy tutaj wszystko

NIE MASZ JESZCZE KONTA? ZAREJESTRUJ SIĘ ZA DARMO!   
Przypomnij hasło X

The Moth Diaries (2011) BRRip.XviD-MAGiX

Dodał: UP-PARADiSE 17 Sierpień 2012 18:41



The Moth Diaries (2011) BRRip.XviD-MAGiX

The Moth Diaries (2011) BRRip.XviD-MAGiX

czas trwania: 1 godz. 25 min.
gatunek: Horror
premiera: 6 września 2011 (świat)
produkcja: Irlandia, Kanada
reżyseria: Mary Harron

Ekranizacja powieśći Rachel Klein to opowieść o fascynacji Rebeki nową rezydentką szkolnego internatu. Ernessa to osóbka dość enigmatyczna, wręcz dziwna, w dodatku skrywająca pewien sekret. Jej obecność w szkole uruchamia szereg niewytłumaczalnych i nadprzyrodzonych zjawisk.

DANE TECHNiCZNE:
Format: AVI
Format/Info: Audio Video Interleave
Format profile: OpenDML
File size: 1.23 GiB
Duration: 1h 22mn
Overall bit rate: 2 135 Kbps
Writing application: Lavf52.84.0

Video
ID: 0
Format: xvid
Codec ID: xvid
Duration: 1h 22mn
Bit rate: 1 800 Kbps
Width: 1 280 pixels
Height: 694 pixels
Display aspect ratio: 1.85:1
Frame rate: 24.000 fps
Bits/(Pixel*Frame: 0.084
Stream size: 1.03 GiB (84%)
source:HDC thanks

Audio
ID: 1
Format: MPEG Audio
Format version: Version 1
Format profile: Layer 3
Mode: Joint stereo
Mode extension: MS Stereo
Codec ID: 55
Codec ID/Hint: MP3
Duratio: 1h 22mn
Bit rate mode: Constant
Bit rate: 320 Kbps
Channel(s): 2 channels
Sampling rate: 48.0 KHz
Compression mode: Lossy
Stream size: 188 MiB (15%)
Alignment: Aligned on interleaves
Interleave, duration: 24 ms (0.58 video frame)

Uwaga! Linki nie zakodowane tylko dla zarejestrowanych użytkowników!

Nie masz konta? Zarejestruj się za darmo!
----------------
Links are not encoded only for registered users only! Plese login or register!

Użytkownik VIP

Artur7335Użytkownik

#1 | Dodany: 17 Sierpień 2012 19:17

Dzięki ok
Zajebisty film
Arti
Użytkownik VIP

juro12Użytkownik

#2 | Dodany: 17 Sierpień 2012 20:20

czy jest lektor.pl
Użytkownik VIP

Artur7335Użytkownik

#3 | Dodany: 18 Sierpień 2012 00:42

Juro12,a jest gdzieś napisane że jest lektor?
Arti
Użytkownik VIP

ghwaySuper Uploader

#4 | Dodany: 22 Wrzesień 2012 11:11



The Moth Diaries (2011) Napisy PL
PLSUBBED.BRRip.XviD-GHW


DANE TECHNiCZNE:

Release: The.Moth.Diaries.2011.PLSUBBED.BRRip.XviD-GHW

Format            : AVI at 1 189 Kbps
Length            : 700 MiB for 1h 22mn 18s 934ms

Video #0          : MPEG-4 Visual at 1 051 Kbps
Aspect            : 640 x 352 (1.818) at 23.976 fps

Audio #0          : MPEG Audio at 128 Kbps
Infos             : 2 channels, 48.0 KHz

Napisy: PL, wtopione





DOWNLOAD - 1 LiNK:


HELLSHARE
Uwaga! Linki nie zakodowane tylko dla zarejestrowanych użytkowników!

Nie masz konta? Zarejestruj się za darmo!
----------------
Links are not encoded only for registered users only! Plese login or register!


TURBOBiT
Uwaga! Linki nie zakodowane tylko dla zarejestrowanych użytkowników!

Nie masz konta? Zarejestruj się za darmo!
----------------
Links are not encoded only for registered users only! Plese login or register!


RAPiDGATOR
Uwaga! Linki nie zakodowane tylko dla zarejestrowanych użytkowników!

Nie masz konta? Zarejestruj się za darmo!
----------------
Links are not encoded only for registered users only! Plese login or register!


FREAKSHARE
Uwaga! Linki nie zakodowane tylko dla zarejestrowanych użytkowników!

Nie masz konta? Zarejestruj się za darmo!
----------------
Links are not encoded only for registered users only! Plese login or register!





DOWNLOAD - 400 MB PARTS:


HELLSHARE
Uwaga! Linki nie zakodowane tylko dla zarejestrowanych użytkowników!

Nie masz konta? Zarejestruj się za darmo!
----------------
Links are not encoded only for registered users only! Plese login or register!


TURBOBiT
Uwaga! Linki nie zakodowane tylko dla zarejestrowanych użytkowników!

Nie masz konta? Zarejestruj się za darmo!
----------------
Links are not encoded only for registered users only! Plese login or register!


RAPiDGATOR
Uwaga! Linki nie zakodowane tylko dla zarejestrowanych użytkowników!

Nie masz konta? Zarejestruj się za darmo!
----------------
Links are not encoded only for registered users only! Plese login or register!


FREAKSHARE
Uwaga! Linki nie zakodowane tylko dla zarejestrowanych użytkowników!

Nie masz konta? Zarejestruj się za darmo!
----------------
Links are not encoded only for registered users only! Plese login or register!




Bez hasła!
Pliki można pobierać naprzemiennie


Informacje

Jeżeli chcesz skomentować artykuł musisz być zarejestrowany na stronie.