EXSite.pl - Portal ze wszystkim Mamy tutaj wszystko

NIE MASZ JESZCZE KONTA? ZAREJESTRUJ SIĘ ZA DARMO!   
Przypomnij hasło X

El Gringo (2012) PLSUBBED.DVDRip.XviD-D4NT3 [700 MB] | Napisy PL + RMVB

Dodał: kuros90 19 Sierpień 2012 11:48


El Gringo (2012) PLSUBBED.DVDRip.XviD-D4NT3 [700 MB] | Napisy PL | +RMVB

El Gringo (2012) PLSUBBED.DVDRip.XviD-D4NT3 [700 MB] | Napisy PL + RMVB

OPIS
Bohaterem filmu jest Amerykanin, który z kulą w ramieniu i dwoma milionami dolarów w torbie przekracza granicę Stanów z Meksykiem. Jego celem jest Acapulco, gdzie zamierza nic nie robić, tylko rozkoszować się spokojem i pięknymi widokami. Niestety jego wrogowie nie dadzą mu tak łatwo o sobie zapomnieć...

INFORMACJE
TYTUŁ FILMU: El Gringo
PRODUKCJA: USA
GATUNEK: Akcja
CZAS TRWANIA: 102 min.
DATA PREMIERY: 11.05.2012 - świat
REŻYSERIA: Eduardo Rodriguez
SCENARIUSZ: Jonathan W. Stokes
OBSADA: Scott Adkins, Yvette Yates, Christian Slater, Israel Islas

DANE TECHNICZNE
NAZWA RELEASU: El Gringo (2012) PLSUBBED.DVDRip.XviD-D4NT3 [700 MB] | Napisy PL
PARAMETRY: Video - 608x256, XViD ~854 kbps; Audio - MP3 ~128 kbps
DODATKOWE INFO: Dopasowane Wtopione Napisy PL

SCREENY
El Gringo (2012) PLSUBBED.DVDRip.XviD-D4NT3 [700 MB] | Napisy PL + RMVB
El Gringo (2012) PLSUBBED.DVDRip.XviD-D4NT3 [700 MB] | Napisy PL + RMVB
El Gringo (2012) PLSUBBED.DVDRip.XviD-D4NT3 [700 MB] | Napisy PL + RMVB

Party po 400 MB (W przypadku większych plików party po 1 GB) lub film niespakowany
Można pobierać przemiennie
Na wszystkich serwerach ten sam film(release)
Dane Naprawcze 5%
Bez hasła
Pojedyncze pakowanie
Archiwa zawierają sam film i nic więcej


DOWNLOAD
Uwaga! Linki nie zakodowane tylko dla zarejestrowanych użytkowników!

Nie masz konta? Zarejestruj się za darmo!
----------------
Links are not encoded only for registered users only! Plese login or register!


+RMVB

DANE TECHNICZNE
Format                                   : RealMedia
File size                                : 354 MiB
Duration                                 : 1h 38mn
Overall bit rate                         : 492 Kbps

Video
ID                                       : 1
Format                                   : RealVideo 4
Codec ID                                 : RV40
Codec ID/Info                            : Based on AVC (H.264), Real Player 9
Duration                                 : 1h 38mn
Bit rate                                 : 428 Kbps
Width                                    : 608 pixels
Height                                   : 256 pixels
Display aspect ratio                     : 2.40:1
Frame rate                               : 23.976 fps
Bits/(Pixel*Frame)                       : 0.115
Stream size                              : 302 MiB (85%)

Audio
ID                                       : 0
Format                                   : Cooker
Codec ID                                 : cook
Codec ID/Info                            : Based on G.722.1, Real Player 6
Duration                                 : 1h 38mn
Bit rate                                 : 64.1 Kbps
Channel(s)                               : 2 channels
Sampling rate                            : 44.1 KHz
Bit depth                                : 16 bits
Stream size                              : 45.3 MiB (13%)


DOWNLOAD
Uwaga! Linki nie zakodowane tylko dla zarejestrowanych użytkowników!

Nie masz konta? Zarejestruj się za darmo!
----------------
Links are not encoded only for registered users only! Plese login or register!

Użytkownik VIP

ghwaySuper Uploader

#1 | Dodany: 17 Sierpień 2012 11:35



El Gringo (2012) Napisy PL
PLSUBBED.DVDRip.XviD-GHW


DANE TECHNiCZNE:

Release: El.Gringo.2012.PLSUBBED.DVDRip.XviD-GHW

Format            : AVI at 988 Kb/s
Length            : 698 MB for 1h 38 min. 44s 961ms

Video #0          : MPEG-4 Visual at 850 Kb/s
Aspect            : 608 x 256 (2.375) at 23.976 fps

Audio #0          : MPEG Audio at 128 Kb/s
Infos             : 2 kanały, 48,0 KHz

Napisy: PL, wtopione | tłumaczenie: ghway





DOWNLOAD - 400 MB PARTS:


HELLSHARE
Uwaga! Linki nie zakodowane tylko dla zarejestrowanych użytkowników!

Nie masz konta? Zarejestruj się za darmo!
----------------
Links are not encoded only for registered users only! Plese login or register!


TURBOBiT
Uwaga! Linki nie zakodowane tylko dla zarejestrowanych użytkowników!

Nie masz konta? Zarejestruj się za darmo!
----------------
Links are not encoded only for registered users only! Plese login or register!


RAPiDGATOR
Uwaga! Linki nie zakodowane tylko dla zarejestrowanych użytkowników!

Nie masz konta? Zarejestruj się za darmo!
----------------
Links are not encoded only for registered users only! Plese login or register!


FREAKSHARE
Uwaga! Linki nie zakodowane tylko dla zarejestrowanych użytkowników!

Nie masz konta? Zarejestruj się za darmo!
----------------
Links are not encoded only for registered users only! Plese login or register!





DOWNLOAD - 1 LiNK:


HELLSHARE
Uwaga! Linki nie zakodowane tylko dla zarejestrowanych użytkowników!

Nie masz konta? Zarejestruj się za darmo!
----------------
Links are not encoded only for registered users only! Plese login or register!


TURBOBiT
Uwaga! Linki nie zakodowane tylko dla zarejestrowanych użytkowników!

Nie masz konta? Zarejestruj się za darmo!
----------------
Links are not encoded only for registered users only! Plese login or register!


RAPiDGATOR
Uwaga! Linki nie zakodowane tylko dla zarejestrowanych użytkowników!

Nie masz konta? Zarejestruj się za darmo!
----------------
Links are not encoded only for registered users only! Plese login or register!


FREAKSHARE
Uwaga! Linki nie zakodowane tylko dla zarejestrowanych użytkowników!

Nie masz konta? Zarejestruj się za darmo!
----------------
Links are not encoded only for registered users only! Plese login or register!




Bez hasła!
Pliki można pobierać naprzemiennie


Użytkownik VIP

marus18Użytkownik

#2 | Dodany: 17 Sierpień 2012 11:45

El Gringo (2012) PLSUBBED.DVDRip.XviD-GHW / Napisy PL

DANE TECHNICZNE:
Format : AVI at 988 Kb/s
Length : 698 MB for 1h 38 min. 44s 961ms

Video #0 : MPEG-4 Visual at 850 Kb/s
Aspect : 608 x 256 (2.375) at 23.976 fps

Audio #0 : MPEG Audio at 128 Kb/s
Infos : 2 kanay, 48,0 KHz


DOWNLOAD:


EGOFILES:
http://egofiles.com/CgLX9c8N5tCOO1Fs/El Gringo (2012) PLSUBBED.DVDRip.XviD-GHW.avi  


RAPIDGATOR:
http://rapidgator.net/file/33179617/El_Gringo_(2012)_PLSUBBED.DVDRip.XviD-GHW.avi.html  

Informacje

Jeżeli chcesz skomentować artykuł musisz być zarejestrowany na stronie.