EXSite.pl - Portal ze wszystkim Mamy tutaj wszystko

NIE MASZ JESZCZE KONTA? ZAREJESTRUJ SIĘ ZA DARMO!   
Przypomnij hasło X

Lego Factory Dzika Planeta / Lego Hero Factory Savage Planet (2012) PLDUB.DVDRip.XviD.AC3-D4NT3 [721 MB] | Dubbing PL | +RMVB

Dodał: kuros90 19 Sierpień 2012 11:57


Lego Factory Dzika Planeta / Lego Hero Factory Savage Planet (2012) PLDUB.DVDRip.XviD.AC3-D4NT3 [721 MB] | Dubbing PL | +RMVB

Lego Factory Dzika Planeta / Lego Hero Factory Savage Planet (2012) PLDUB.DVDRip.XviD.AC3-D4NT3 [721 MB] | Dubbing PL | +RMVB

OPIS
Nowa, ekscytująca filmowa przygoda z bohaterami nowej generacji zabawek w roli głównej. Misja Hero Factory: zbudować najodważniejszych, najbardziej zaawansowanych Bohaterów w całej galaktyce! Kiedy rekrut Rocka zostaje wezwany na pomoc przez mieszka?ca planety Quatros odkrywa, że los całej planety jest zagrożony. Razem z zawodowcami Bulką i Stringerem oraz rekrutami Furno, Nexem oraz Stormerem będą musieli pokonać złowrogiego Witch Doctora i ocalić piękną planetę. Czy nasi Bohaterowie zostaną pokonani przez potwora? Czy planeta Quartos ulegnie zniszczeniu? W tym nowym filmie twórców BIONICLEŽ, potężnym siłom wroga będą musieli się przeciwstawić niezwykli Bohaterowie!

INFORMACJE
TYTUŁ FILMU: Lego Factory Dzika Planeta / Lego Hero Factory Savage Planet
PRODUKCJA: USA
GATUNEK: Animacja
CZAS TRWANIA: 42 min.
DATA PREMIERY: ??.08.2011 - świat
REŻYSERIA: Mark Baldo
SCENARIUSZ: BRAK DANYCH
OBSADA: BRAK DANYCH

DANE TECHNICZNE
NAZWA RELEASU: Lego Factory Dzika Planeta / Lego Hero Factory Savage Planet (2012) PLDUB.DVDRip.XviD.AC3-D4NT3 [721 MB] | Dubbing PL
PARAMETRY: Video Source: SViNTO - 640x368, XViD ~2119 kbps; Audio - AC3 ~192 kbps
DODATKOWE INFO: Dubbing PL

SCREENY
Lego Factory Dzika Planeta / Lego Hero Factory Savage Planet (2012) PLDUB.DVDRip.XviD.AC3-D4NT3 [721 MB] | Dubbing PL | +RMVB
Lego Factory Dzika Planeta / Lego Hero Factory Savage Planet (2012) PLDUB.DVDRip.XviD.AC3-D4NT3 [721 MB] | Dubbing PL | +RMVB
Lego Factory Dzika Planeta / Lego Hero Factory Savage Planet (2012) PLDUB.DVDRip.XviD.AC3-D4NT3 [721 MB] | Dubbing PL | +RMVB

Party po 400 MB (W przypadku większych plików party po 1 GB) lub film niespakowany
Można pobierać przemiennie
Na wszystkich serwerach ten sam film(release)
Dane Naprawcze 5%
Bez hasła
Pojedyncze pakowanie
Archiwa zawierają sam film i nic więcej


DOWNLOAD
Uwaga! Linki nie zakodowane tylko dla zarejestrowanych użytkowników!

Nie masz konta? Zarejestruj się za darmo!
----------------
Links are not encoded only for registered users only! Plese login or register!


+RMVB

DANE TECHNICZNE
Format                                   : RealMedia
File size                                : 208 MiB
Duration                                 : 42mn 44s
Overall bit rate                         : 666 Kbps

Video
ID                                       : 1
Format                                   : RealVideo 4
Codec ID                                 : RV40
Codec ID/Info                            : Based on AVC (H.264), Real Player 9
Duration                                 : 42mn 44s
Bit rate                                 : 602 Kbps
Width                                    : 640 pixels
Height                                   : 368 pixels
Display aspect ratio                     : 16:9
Frame rate                               : 25.000 fps
Bits/(Pixel*Frame)                       : 0.102
Stream size                              : 184 MiB (89%)

Audio
ID                                       : 0
Format                                   : Cooker
Codec ID                                 : cook
Codec ID/Info                            : Based on G.722.1, Real Player 6
Duration                                 : 42mn 45s
Bit rate                                 : 64.1 Kbps
Channel(s)                               : 2 channels
Sampling rate                            : 44.1 KHz
Bit depth                                : 16 bits
Stream size                              : 19.6 MiB (9%)


DOWNLOAD
Uwaga! Linki nie zakodowane tylko dla zarejestrowanych użytkowników!

Nie masz konta? Zarejestruj się za darmo!
----------------
Links are not encoded only for registered users only! Plese login or register!

Użytkownik VIP

GHunter Użytkownik

#1 | Dodany: 17 Sierpień 2012 11:39

:-)
Użytkownik VIP

1z2x3Użytkownik

#2 | Dodany: 19 Sierpień 2012 13:18

brak filmu nie sciągcc
Użytkownik VIP

bllaszczykUżytkownik

#3 | Dodany: 28 Styczeń 2014 13:16

linki wygasły

Informacje

Jeżeli chcesz skomentować artykuł musisz być zarejestrowany na stronie.