EXSite.pl - Portal ze wszystkim Mamy tutaj wszystko

NIE MASZ JESZCZE KONTA? ZAREJESTRUJ SIĘ ZA DARMO!   
Przypomnij hasło X

Taped (2012) PLSUBBED.DVDRip.XviD-D4NT3 [700 MB] | Napisy PL | +RMVB

Dodał: kuros90 19 Sierpień 2012 14:12


Taped (2012) PLSUBBED.DVDRip.XviD-D4NT3 [700 MB] | Napisy PL | +RMVB

Taped (2012) PLSUBBED.DVDRip.XviD-D4NT3 [700 MB] | Napisy PL | +RMVB

OPIS
Przerażający thriller w którym Johan i Saar grają holenderską parę na wakacjach w Buenos Aires. W czasie, gdy ich rozpadające się małże?stwo zostaje poddane próbie ratowania, stają się przypadkowo naocznymi świadkami morderstwa popełnionego przez skorumpowanego policjanta. Ich życie przybiera dramatyczny obrót kiedy nagrywają to wydarzenie kamerą.

INFORMACJE
TYTUŁ FILMU: Taped
PRODUKCJA: Holandia
GATUNEK: Thriller
CZAS TRWANIA: 80 min.
DATA PREMIERY: 23.02.2012 - świat
REŻYSERIA: Diederik Van Rooijen
SCENARIUSZ: Marnie Blok, Diederik Van Rooijen
OBSADA: Barry Atsma, Susan Visser, Darío Levy

DANE TECHNICZNE
NAZWA RELEASU: Taped (2012) PLSUBBED.DVDRip.XviD-D4NT3 [700 MB] | Napisy PL
PARAMETRY: Video - 640x272, XViD ~1012 kbps; Audio - MP3 ~192 kbps
DODATKOWE INFO: Dopasowane Wtopione Napisy PL

SCREENY
Taped (2012) PLSUBBED.DVDRip.XviD-D4NT3 [700 MB] | Napisy PL | +RMVB
Taped (2012) PLSUBBED.DVDRip.XviD-D4NT3 [700 MB] | Napisy PL | +RMVB
Taped (2012) PLSUBBED.DVDRip.XviD-D4NT3 [700 MB] | Napisy PL | +RMVB

Party po 400 MB (W przypadku większych plików party po 1 GB) lub film niespakowany
Można pobierać przemiennie
Na wszystkich serwerach ten sam film(release)
Dane Naprawcze 5%
Bez hasła
Pojedyncze pakowanie
Archiwa zawierają sam film i nic więcej


DOWNLOAD
Uwaga! Linki nie zakodowane tylko dla zarejestrowanych użytkowników!

Nie masz konta? Zarejestruj się za darmo!
----------------
Links are not encoded only for registered users only! Plese login or register!


+RMVB

DANE TECHNICZNE
Format                                   : RealMedia
File size                                : 300 MiB
Duration                                 : 1h 20mn
Overall bit rate                         : 504 Kbps

Video
ID                                       : 1
Format                                   : RealVideo 4
Codec ID                                 : RV40
Codec ID/Info                            : Based on AVC (H.264), Real Player 9
Duration                                 : 1h 20mn
Bit rate                                 : 440 Kbps
Width                                    : 640 pixels
Height                                   : 272 pixels
Display aspect ratio                     : 2.35:1
Frame rate                               : 25.000 fps
Bits/(Pixel*Frame)                       : 0.101
Stream size                              : 254 MiB (85%)

Audio
ID                                       : 0
Format                                   : Cooker
Codec ID                                 : cook
Codec ID/Info                            : Based on G.722.1, Real Player 6
Duration                                 : 1h 20mn
Bit rate                                 : 64.1 Kbps
Channel(s)                               : 2 channels
Sampling rate                            : 44.1 KHz
Bit depth                                : 16 bits
Stream size                              : 37.1 MiB (12%)


DOWNLOAD
Uwaga! Linki nie zakodowane tylko dla zarejestrowanych użytkowników!

Nie masz konta? Zarejestruj się za darmo!
----------------
Links are not encoded only for registered users only! Plese login or register!

Użytkownik VIP

ghwaySuper Uploader

#1 | Dodany: 17 Sierpień 2012 17:00



Nagranie / Taped (2012) Napisy PL
PLSUBBED.DVDRip.XviD-GHW


DANE TECHNiCZNE:

Release: Taped.2012.PLSUBBED.DVDRip.XviD-GHW

Format            : AVI at 1 211 Kbps
Length            : 700 MiB for 1h 20mn 50s 600ms

Video #0          : MPEG-4 Visual at 1 013 Kbps
Aspect            : 640 x 272 (2.353) at 25.000 fps

Audio #0          : MPEG Audio at 192 Kbps
Infos             : 2 channels, 48.0 KHz

Napisy: PL, wtopione





DOWNLOAD - 400 MB PARTS:


HELLSHARE
Uwaga! Linki nie zakodowane tylko dla zarejestrowanych użytkowników!

Nie masz konta? Zarejestruj się za darmo!
----------------
Links are not encoded only for registered users only! Plese login or register!


TURBOBiT
Uwaga! Linki nie zakodowane tylko dla zarejestrowanych użytkowników!

Nie masz konta? Zarejestruj się za darmo!
----------------
Links are not encoded only for registered users only! Plese login or register!


RAPiDGATOR
Uwaga! Linki nie zakodowane tylko dla zarejestrowanych użytkowników!

Nie masz konta? Zarejestruj się za darmo!
----------------
Links are not encoded only for registered users only! Plese login or register!


FREAKSHARE
Uwaga! Linki nie zakodowane tylko dla zarejestrowanych użytkowników!

Nie masz konta? Zarejestruj się za darmo!
----------------
Links are not encoded only for registered users only! Plese login or register!





DOWNLOAD - 1 LiNK:


HELLSHARE
Uwaga! Linki nie zakodowane tylko dla zarejestrowanych użytkowników!

Nie masz konta? Zarejestruj się za darmo!
----------------
Links are not encoded only for registered users only! Plese login or register!


TURBOBiT
Uwaga! Linki nie zakodowane tylko dla zarejestrowanych użytkowników!

Nie masz konta? Zarejestruj się za darmo!
----------------
Links are not encoded only for registered users only! Plese login or register!


RAPiDGATOR
Uwaga! Linki nie zakodowane tylko dla zarejestrowanych użytkowników!

Nie masz konta? Zarejestruj się za darmo!
----------------
Links are not encoded only for registered users only! Plese login or register!


FREAKSHARE
Uwaga! Linki nie zakodowane tylko dla zarejestrowanych użytkowników!

Nie masz konta? Zarejestruj się za darmo!
----------------
Links are not encoded only for registered users only! Plese login or register!




Bez hasła!
Pliki można pobierać naprzemiennie


Użytkownik VIP

ssoberUżytkownik

#2 | Dodany: 17 Sierpień 2012 21:21

.....
Użytkownik VIP

marus18Użytkownik

#3 | Dodany: 19 Sierpień 2012 14:37

Taped (2012) PLSUBBED.DVDRip.XviD-TaCa *NAPiSY PL*

DANE TECHNICZNE:
Encoded by.....: TaCa
Release Date...: 17.08.2012
Runtime........: 1h 20min
Source (V).....: EXViD
Source (A).....: EXViD
Resolution.....: 640x272
Video Codec....: Xvid
Video Bitrate..: 1013 kbps
Audio Codec....: Mp3
Audio Bitrate..: 128 kbps
Framerate......: 25.000
Language.......: English
Subtitles......: Polish


DOWNLOAD:


EGOFILES:
http://egofiles.com/BiMAmbSSUoMWnwGA/Taped.2012.PL.SUBBED.DVDRip.XviD-TaCa.avi


RAPIDGATOR:
http://rapidgator.net/file/33483169/Taped.2012.PL.SUBBED.DVDRip.XviD-TaCa.avi.html  
Użytkownik VIP

mike33Użytkownik

#4 | Dodany: 21 Sierpień 2012 13:19

Taped (2012)PLSUBBED.DVDRIP.XViD-AZMX.RMVB



Bitshare

Uwaga! Linki nie zakodowane tylko dla zarejestrowanych użytkowników!

Nie masz konta? Zarejestruj się za darmo!
----------------
Links are not encoded only for registered users only! Plese login or register!

Informacje

Jeżeli chcesz skomentować artykuł musisz być zarejestrowany na stronie.