EXSite.pl - Portal ze wszystkim Mamy tutaj wszystko

NIE MASZ JESZCZE KONTA? ZAREJESTRUJ SIĘ ZA DARMO!   
Przypomnij hasło X

Król smoków / Long xiao ye (1982) PL.DVDRip.XviD.AC3-OldStarS *LEKTOR PL*

Dodał: Motyleczek 3 Październik 2012 10:30


Król smoków / Long xiao ye (1982) PL.DVDRip.XviD.AC3-OldStarS *LEKTOR PL*

Król smoków / Long xiao ye (1982) PL.DVDRip.XviD.AC3-OldStarS *LEKTOR PL*

czas trwania: 1 godz. 26 min.
gatunek: Komedia, Akcja, Sztuki walki
premiera: 21 stycznia 1982 (świat) (więcej...)
produkcja: Hongkong
reżyseria: Jackie Chan
scenariusz: Jackie Chan, Edward Tang (więcej...)

Dragon Ho i jego przyjaciel Kowboj rozpaczliwie próbują ocalić historyczny i bezcenny skarb. Aby to zrobić będą zmuszeni stoczyć szale?czą walkę z Wielkim Szefem i jego żołnierzami.

Król smoków / Long xiao ye (1982) PL.DVDRip.XviD.AC3-OldStarS *LEKTOR PL*

Król smoków / Long xiao ye (1982) PL.DVDRip.XviD.AC3-OldStarS *LEKTOR PL*

Król smoków / Long xiao ye (1982) PL.DVDRip.XviD.AC3-OldStarS *LEKTOR PL*

Król smoków / Long xiao ye (1982) PL.DVDRip.XviD.AC3-OldStarS *LEKTOR PL*

Król smoków / Long xiao ye (1982) PL.DVDRip.XviD.AC3-OldStarS *LEKTOR PL*

Release Date.......: 29/09/2012
Source.............: DVD-5
Video Codec........: MPEG-4 Visual (XVID)
Video Bitrate......: 1 666 Kbps
Resolution.........: 640 x 272 (2.353)
Framerate..........: 25.000 fps
Audio Codec........: AC-3 6 channels
Audio Bitrate......: 448 Kbps
Language...........: Polish
Subtitles..........: N/A
Genre..............: Komedia, Akcja, Sztuki walki
Runtime............: 1h 32mn
Size...............: 1.37 GiB
Encoded by.........: TaCa


Uwaga! Linki nie zakodowane tylko dla zarejestrowanych użytkowników!

Nie masz konta? Zarejestruj się za darmo!
----------------
Links are not encoded only for registered users only! Plese login or register!


1 Link
Uwaga! Linki nie zakodowane tylko dla zarejestrowanych użytkowników!

Nie masz konta? Zarejestruj się za darmo!
----------------
Links are not encoded only for registered users only! Plese login or register!

Użytkownik VIP

MotyleczekUploader

#1 | Dodany: 3 Październik 2012 10:30

brawo
Użytkownik VIP

kartaczVIP Uploader

#2 | Dodany: 26 Listopad 2012 10:16


RIP INFO:
Long.Xiao.Ye.1982.PL.AC3.DVDRip.XviD-OldStarS

Video............: 640 x 272, XviD, 1666 kbps
Audio............: AC3, 448 kbps, 6 kanałów
Czas trwania.....: 92 min.
Język............: Polski Lektor
Rozmiar..........: 1370 MB
Rodzaj kompresji.: .rar
Zawartość uploadu: plik .avi
Dane naprawcze...: Brak


W partach, można pobierać naprzemiennie:

Uwaga! Linki nie zakodowane tylko dla zarejestrowanych użytkowników!

Nie masz konta? Zarejestruj się za darmo!
----------------
Links are not encoded only for registered users only! Plese login or register!


Pojedy?czy link:

Uwaga! Linki nie zakodowane tylko dla zarejestrowanych użytkowników!

Nie masz konta? Zarejestruj się za darmo!
----------------
Links are not encoded only for registered users only! Plese login or register!
Użytkownik VIP

AcherReduxUploader

#3 | Dodany: 18 Czerwiec 2013 18:53

Info:

Format : AVI
Format/Info : Audio Video Interleave
Format profile : OpenDML
File size : 1.48 GiB
Duration : 1h 32mn
Overall bit rate : 2 291 Kbps
Writing application : Lavf52.94.0

Video


Duration : 1h 32mn
Bit rate : 1 959 Kbps
Width : 768 pixels
Height : 576 pixels
Display aspect ratio : 4:3
Frame rate : 25.000 fps
Color space : YUV
Chroma subsampling : 4:2:0
Bit depth : 8 bits
Scan type : Progressive
Compression mode : Lossy
Bits/(Pixel*Frame) : 0.177
Stream size : 1.26 GiB (86%)
Writing library : XviD 1.2.1 (UTC 2008-12-04)

Audio
ID : 1
Format : AC-3
Format/Info : Audio Coding 3
Duration : 1h 32mn
Bit rate : 320 Kbps
Channel(s) : 6 channels
Channel positions : Front: L C R, Side: L R, LFE
Sampling rate : 48.0 KHz
Bit depth : 16 bits
Compression mode : Lossy
Stream size : 211 MiB (14%)
Interleave, duration : 32 ms (0.80 video frame)



Uwaga! Linki nie zakodowane tylko dla zarejestrowanych użytkowników!

Nie masz konta? Zarejestruj się za darmo!
----------------
Links are not encoded only for registered users only! Plese login or register!

Informacje

Jeżeli chcesz skomentować artykuł musisz być zarejestrowany na stronie.