EXSite.pl - Portal ze wszystkim Mamy tutaj wszystko

NIE MASZ JESZCZE KONTA? ZAREJESTRUJ SIĘ ZA DARMO!   
Przypomnij hasło X

Dziennik zakrapiany rumem / The Rum Diary (2011) PL.DVDRiP.XViD-PSiG | Lektor PL

Dodał: ampatinis 8 Październik 2012 20:38


Dziennik zakrapiany rumem / The Rum Diary (2011) PL.DVDRiP.XViD-PSiG | Lektor PL

Dziennik zakrapiany rumem / The Rum Diary (2011) PL.DVDRiP.XViD-PSiG | Lektor PL

Dziennik zakrapiany rumem / The Rum Diary (2011) PL.DVDRiP.XViD-PSiG | Lektor PL

iNFO:
czas trwania: 2 godz.
gatunek: Dramat
premiera: 30 grudnia 2011 (Polska) 13 października 2011 (świat)
produkcja: USA
reżyseria: Bruce Robinson
scenariusz: Bruce Robinson

OPiS:
Paul Kemp (Depp) porzuca nowojorski hałas na rzecz błogiego spokoju rajskiej wyspy Portoryko i przyjmuje posadę dziennikarza w lokalnej gazecie, prowadzonej przez sponiewieranego przez życie redaktora Lottermana (Richard Jenkins). Umilając sobie czas pokaźnymi dawkami rumu, Paul poznaje i błyskawicznie traci głowę dla zmysłowej Chenault (Amber Heard). Problem w tym, że dziewczyna zaręczona jest z ameryka?skim przedsiębiorcą (Aaron Eckhart), który planuje przemienić wyspę w swoje prywatne...


Format : AVI
Format/Info : Audio Video Interleave
File size : 1.37 GiB
Duration : 1h 54mn
Overall bit rate : 1 712 Kbps
Writing application : VirtualDubMod 1.5.10.2 (build 2540/release)
Writing library : VirtualDubMod build 2540/release

Video
ID : 0
Format : MPEG-4 Visual
Format profile : Advanced Simple@L5
Format settings, BVOP : 1
Format settings, QPel : No
Format settings, GMC : No warppoints
Format settings, Matrix : Default (H.263)
Codec ID : XVID
Codec ID/Hint : XviD
Duration : 1h 54mn
Bit rate : 1 254 Kbps
Width : 624 pixels
Height : 352 pixels
Display aspect ratio : 16:9
Frame rate : 25.000 fps
Color space : YUV
Chroma subsampling : 4:2:0
Bit depth : 8 bits
Scan type : Progressive
Compression mode : Lossy
Bits/(Pixel*Frame) : 0.228
Stream size : 1.00 GiB (73%)
Writing library : XviD 1.2.1 (UTC 2008-12-04)

Audio
ID : 1
Format : AC-3
Format/Info : Audio Coding 3
Mode extension : CM (complete main)
Format settings, Endianness : Big
Codec ID : 2000
Duration : 1h 54mn
Bit rate mode : Constant
Bit rate : 448 Kbps
Channel(s) : 6 channels
Channel positions : Front: L C R, Side: L R, LFE
Sampling rate : 48.0 KHz
Bit depth : 16 bits
Compression mode : Lossy
Delay relative to video : 28ms
Stream size : 367 MiB (26%)
Alignment : Split accross interleaves
Interleave, duration : 40 ms (1.00 video frame)
Interleave, preload duration : 500 ms


Dziennik zakrapiany rumem / The Rum Diary (2011) PL.DVDRiP.XViD-PSiG | Lektor PL

Dziennik zakrapiany rumem / The Rum Diary (2011) PL.DVDRiP.XViD-PSiG | Lektor PL Dziennik zakrapiany rumem / The Rum Diary (2011) PL.DVDRiP.XViD-PSiG | Lektor PL

Dziennik zakrapiany rumem / The Rum Diary (2011) PL.DVDRiP.XViD-PSiG | Lektor PL
Uwaga! Linki nie zakodowane tylko dla zarejestrowanych użytkowników!

Nie masz konta? Zarejestruj się za darmo!
----------------
Links are not encoded only for registered users only! Plese login or register!



Użytkownik VIP

darkk`Użytkownik

#1 | Dodany: 8 Październik 2012 21:01

Dziennik zakrapiany rumem / The Rum Diary (2011)
PL.DVDRip.XviD-B89 / Lektor PL


DANE TECHNICZNE:
Format : AVI at 848 Kb/s
Length : 698 MB for 1h 55 min. 1s 560ms
Video : MPEG-4 Visual at 711 Kb/s
Aspect : 640 x 336 (1.905) at 25.000 fps
Audio : MPEG Audio at 128 Kb/s
Infos : 2 kanały, 48,0 KHz


OPIS UPLOADU:
Wielkość Uploadu: 698 MB
Rodzaj Kompresji: brak
Zawartość Uploadu: Plik .avi
Wersja Językowa: Lektor PL
Hasło : brak hasła


SCREENY:



DOWNLOAD
POJEDYNCZE LINKI / BEZ KOMPRESJI

Uwaga! Linki nie zakodowane tylko dla zarejestrowanych użytkowników!

Nie masz konta? Zarejestruj się za darmo!
----------------
Links are not encoded only for registered users only! Plese login or register!
Użytkownik VIP

bartolinio13Użytkownik

#2 | Dodany: 16 Luty 2013 19:54

Dziennik zakrapiany rumem / The Rum Diary (2011) PL.DVDRip.XviD / Lektor PL

Dane techniczne

Format            : AVI(848184, at 848 Kbps)
Length            : 698 MiB for 1h 55mn 1s 561ms

Video #0          : MPEG-4 Visual(710515, at 711 Kbps)
Aspect            : 640 x 336 (1.905)(25.000, at 25.000 fps)

Audio #0          : MPEG Audio(128000, at 128 Kbps)
Infos             : 2 channels, 48.0 KHz


DOWNLOAD

###EgoFiles###
http://egofiles.com/mxP2IWug2yoGwwHU/Dziennik.zakrapiany.rumem.2011.PL.DVDRip.XviD.avi


###HellShare###
http://download.hellshare.pl/dziennik-zakrapiany-rumem-2011-pl-dvdrip-xvid-avi/11650971/


###CatShare###
http://catshare.net/haF6vQzs7quXHsJy/Dziennik.zakrapiany.rumem.2011.PL.DVDRip.XviD.avi

Informacje

Jeżeli chcesz skomentować artykuł musisz być zarejestrowany na stronie.