EXSite.pl - Portal ze wszystkim Mamy tutaj wszystko

NIE MASZ JESZCZE KONTA? ZAREJESTRUJ SIĘ ZA DARMO!   
Przypomnij hasło X

Telemaniak / The Cable Guy (1996) PL.AC3.480p.BRRip.XviD-TLRG | Lektor PL

Dodał: ampatinis 16 Październik 2012 19:15


Telemaniak / The Cable Guy (1996) PL.AC3.480p.BRRip.XviD-TLRG | Lektor PL

Telemaniak / The Cable Guy (1996) PL.AC3.480p.BRRip.XviD-TLRG | Lektor PL

Telemaniak / The Cable Guy (1996) PL.AC3.480p.BRRip.XviD-TLRG | Lektor PL

reżyseria: Ben Stiller
scenariusz: Lou Holtz Jr.
premiera: 30 sierpnia 1996 (Polska) 10 czerwca 1996 (świat)
produkcja: USA
gatunek: Czarna komedia


Steven Kovacs przeprowadza się do nowego mieszkania. Wkrótce odwiedza go Chip Douglas, ekscentryczny instalator kablówki. Jak się okazuje, jest on fanatycznym wielbicielem telewizji. Nowy lokator wydaje mu się idealnym kandydatem na przyjaciela, lecz coraz częściej narzuca on swoje towarzystwo Stevenowi. W ko?cu traci on cierpliwość i wyrzuca Chipa z domu. Odtrącony mężczyzna poprzysięga zemstę.


Video
ID : 0
Format : MPEG-4 Visual
Format profile : Advanced Simple@L5
Format settings, BVOP : 1
Format settings, QPel : No
Format settings, GMC : No warppoints
Format settings, Matrix : Default (H.263)
Muxing mode : Packed bitstream
Codec ID : XVID
Codec ID/Hint : XviD
Duration : 1h 35mn
Bit rate : 3 226 Kbps
Width : 720 pixels
Height : 304 pixels
Display aspect ratio : 2.35:1
Frame rate : 23.976 fps
Color space : YUV
Chroma subsampling : 4:2:0
Bit depth : 8 bits
Scan type : Progressive
Compression mode : Lossy
Bits/(Pixel*Frame) : 0.615
Stream size : 2.16 GiB (83%)
Writing library : XviD 1.2.1 (UTC 2008-12-04)

Audio
ID : 1
Format : AC-3
Format/Info : Audio Coding 3
Mode extension : CM (complete main)
Codec ID : 2000
Duration : 1h 35mn
Bit rate mode : Constant
Bit rate : 640 Kbps
Channel(s) : 6 channels
Channel positions : Front: L C R, Side: L R, LFE
Sampling rate : 48.0 KHz
Bit depth : 16 bits
Compression mode : Lossy
Stream size : 438 MiB (17%)
Alignment : Aligned on interleaves
Interleave, duration : 64 ms (1.53 video frames)
Interleave, preload duration : 192 ms
Title : The.Cable.Guy.1996.PL.BR.DD.5.1.640kbps-HDBT


Telemaniak / The Cable Guy (1996) PL.AC3.480p.BRRip.XviD-TLRG | Lektor PL

Telemaniak / The Cable Guy (1996) PL.AC3.480p.BRRip.XviD-TLRG | Lektor PL

Telemaniak / The Cable Guy (1996) PL.AC3.480p.BRRip.XviD-TLRG | Lektor PL
Uwaga! Linki nie zakodowane tylko dla zarejestrowanych użytkowników!

Nie masz konta? Zarejestruj się za darmo!
----------------
Links are not encoded only for registered users only! Plese login or register!



Informacje

Jeżeli chcesz skomentować artykuł musisz być zarejestrowany na stronie.