EXSite.pl - Portal ze wszystkim Mamy tutaj wszystko

NIE MASZ JESZCZE KONTA? ZAREJESTRUJ SIĘ ZA DARMO!   
Przypomnij hasło X

Pannice w opałach / Damsels in Distress (2011) PL.AC3.DVDRip.XviD-TLRG | Lektor PL

Dodał: ampatinis 16 Październik 2012 19:17


Pannice w opałach / Damsels in Distress (2011) PL.AC3.DVDRip.XviD-TLRG | Lektor PL

Pannice w opałach / Damsels in Distress (2011) PL.AC3.DVDRip.XviD-TLRG | Lektor PL

Pannice w opałach / Damsels in Distress (2011) PL.AC3.DVDRip.XviD-TLRG | Lektor PL

czas trwania: 1 godz. 37 min.
gatunek: Dramat, Komedia, Romans
premiera: 10 września 2010 (świat)
produkcja: USA
reżyseria: Whit Stillman
scenariusz: Whit Stillman

Film opowiada historię trzech pięknych przyjaciółek. Chcą one wprowadzić radykalne zmiany na staroświeckim uniwersytecie. W tej akcji ma im pomóc jeszcze jedna studentka z zagranicy - Lily. Starają się pomóc znudzonym studentom m.in poprzez lekcje ta?ca. Wszystko idzie dobrze, dopóki na horyzoncie nie pojawi się czterech przystojnych chłopców, przyjaź? dziewczyn zostanie wystawiona na próbę...


Format : AVI
Format/Info : Audio Video Interleave
File size : 1.32 GiB
Duration : 1h 35mn
Overall bit rate : 1 988 Kbps
Writing application : VirtualDubMod 1.5.10.2 (build 2540/release)
Writing library : VirtualDubMod build 2540/release

Video
ID : 0
Format : MPEG-4 Visual
Format profile : Advanced Simple@L5
Format settings, BVOP : 1
Format settings, QPel : No
Format settings, GMC : No warppoints
Format settings, Matrix : Default (MPEG)
Muxing mode : Packed bitstream
Codec ID : XVID
Codec ID/Hint : XviD
Duration : 1h 35mn
Bit rate : 1 594 Kbps
Width : 640 pixels
Height : 336 pixels
Display aspect ratio : 1.905
Frame rate : 25.000 fps
Color space : YUV
Chroma subsampling : 4:2:0
Bit depth : 8 bits
Scan type : Progressive
Compression mode : Lossy
Bits/(Pixel*Frame) : 0.296
Stream size : 1.06 GiB (80%)
Writing library : XviD 1.0.2 (UTC 2004-08-29)

Audio
ID : 1
Format : AC-3
Format/Info : Audio Coding 3
Mode extension : CM (complete main)
Format settings, Endianness : Big
Codec ID : 2000
Duration : 1h 35mn
Bit rate mode : Constant
Bit rate : 384 Kbps
Channel(s) : 6 channels
Channel positions : Front: L C R, Side: L R, LFE
Sampling rate : 48.0 KHz
Bit depth : 16 bits
Compression mode : Lossy
Stream size : 261 MiB (19%)
Alignment : Split accross interleaves
Interleave, duration : 40 ms (1.00 video frame)
Interleave, preload duration : 500 ms


Pannice w opałach / Damsels in Distress (2011) PL.AC3.DVDRip.XviD-TLRG | Lektor PL

Pannice w opałach / Damsels in Distress (2011) PL.AC3.DVDRip.XviD-TLRG | Lektor PL

Pannice w opałach / Damsels in Distress (2011) PL.AC3.DVDRip.XviD-TLRG | Lektor PL
Uwaga! Linki nie zakodowane tylko dla zarejestrowanych użytkowników!

Nie masz konta? Zarejestruj się za darmo!
----------------
Links are not encoded only for registered users only! Plese login or register!



Użytkownik VIP

ssoberUżytkownik

#1 | Dodany: 16 Październik 2012 19:18

Pannice w opałach / Damsels in Distress (2011) PL.BRRip.XviD-BiDA / Lektor PL




DANE TECHNICZNE:
Format : AVI at 985 Kb/s
Length : 698 MB for 1h 39 min. 7s 608ms

Video #0 : MPEG-4 Visual at 851 Kb/s
Aspect : 624 x 336 (1.857) at 23.976 fps

Audio #0 : MPEG Audio at 128 Kb/s
Infos : 2 kanały, 48,0 KHz








EGOFILES
Uwaga! Linki nie zakodowane tylko dla zarejestrowanych użytkowników!

Nie masz konta? Zarejestruj się za darmo!
----------------
Links are not encoded only for registered users only! Plese login or register!



HELLSHARE
Uwaga! Linki nie zakodowane tylko dla zarejestrowanych użytkowników!

Nie masz konta? Zarejestruj się za darmo!
----------------
Links are not encoded only for registered users only! Plese login or register!



TURBOBIT
Uwaga! Linki nie zakodowane tylko dla zarejestrowanych użytkowników!

Nie masz konta? Zarejestruj się za darmo!
----------------
Links are not encoded only for registered users only! Plese login or register!
Użytkownik VIP

darkk`Użytkownik

#2 | Dodany: 16 Październik 2012 20:10

Pannice w opałach / Damsels in Distress (2011)
PL.BRRip.XviD-BiDA / Lektor PL


DANE TECHNICZNE:
Format : AVI at 985 Kb/s
Length : 698 MB for 1h 39 min. 7s 608ms
Video : MPEG-4 Visual at 851 Kb/s
Aspect : 624 x 336 (1.857) at 23.976 fps
Audio : MPEG Audio at 128 Kb/s
Infos : 2 kanały, 48,0 KHz

OPIS UPLOADU:
Wielkość Uploadu: 698 MB
Rodzaj Kompresji: brak
Zawartość Uploadu: Plik .avi
Wersja Językowa: Lektor PL
Hasło : brak hasła

DOWNLOAD
POJEDYNCZE LINKI / BEZ KOMPRESJI
Uwaga! Linki nie zakodowane tylko dla zarejestrowanych użytkowników!

Nie masz konta? Zarejestruj się za darmo!
----------------
Links are not encoded only for registered users only! Plese login or register!

Informacje

Jeżeli chcesz skomentować artykuł musisz być zarejestrowany na stronie.