EXSite.pl - Portal ze wszystkim Mamy tutaj wszystko

NIE MASZ JESZCZE KONTA? ZAREJESTRUJ SIĘ ZA DARMO!   
Przypomnij hasło X

Królowie ulicy 2 / Street Kings 2 Motor City (2011) Unrated.PL.AC3.720p.BRRip.XviD-TLRG | Lektor PL

Dodał: ampatinis 19 Październik 2012 12:01


Królowie ulicy 2 / Street Kings 2 Motor City (2011) Unrated.PL.AC3.720p.BRRip.XviD-TLRG | Lektor PL

Królowie ulicy 2 / Street Kings 2 Motor City (2011) Unrated.PL.AC3.720p.BRRip.XviD-TLRG |   Lektor PL

Królowie ulicy 2 / Street Kings 2 Motor City (2011) Unrated.PL.AC3.720p.BRRip.XviD-TLRG |   Lektor PL

Kiedy partner policjanta Marty'ego Kingstona (Ray Liotta ) zostaje zabity przez zamaskowanego mordercę, musi on sprzymierzyć się z detektywem do spraw zabójstw, Danem Sullivanem (Shawn Hatosy ) by rozwikłać zagadkę brutalnych zabójstw policjantów i znaleźć odpowiedzialnego za śmierć partnera.


Video
ID : 0
Format : MPEG-4 Visual
Format profile : Advanced Simple@L5
Format settings, BVOP : 2
Format settings, QPel : Yes
Format settings, GMC : No warppoints
Format settings, Matrix : Default (H.263)
Codec ID : XVID
Codec ID/Hint : XviD
Duration : 1h 32mn
Bit rate : 5 040 Kbps
Width : 1 280 pixels
Height : 720 pixels
Display aspect ratio : 16:9
Frame rate : 23.976 fps
Color space : YUV
Chroma subsampling : 4:2:0
Bit depth : 8 bits
Scan type : Progressive
Compression mode : Lossy
Bits/(Pixel*Frame) : 0.228
Stream size : 3.25 GiB (92%)
Writing library : XviD 1.2.1 (UTC 2008-12-04)

Audio
ID : 1
Format : AC-3
Format/Info : Audio Coding 3
Mode extension : CM (complete main)
Codec ID : 2000
Duration : 1h 32mn
Bit rate mode : Constant
Bit rate : 448 Kbps
Channel(s) : 6 channels
Channel positions : Front: L C R, Side: L R, LFE
Sampling rate : 48.0 KHz
Bit depth : 16 bits
Compression mode : Lossy
Stream size : 296 MiB (8%)
Alignment : Split accross interleaves
Interleave, duration : 42 ms (1.00 video frame)
Interleave, preload duration : 500 ms


Królowie ulicy 2 / Street Kings 2 Motor City (2011) Unrated.PL.AC3.720p.BRRip.XviD-TLRG |   Lektor PL

Królowie ulicy 2 / Street Kings 2 Motor City (2011) Unrated.PL.AC3.720p.BRRip.XviD-TLRG |   Lektor PL

Królowie ulicy 2 / Street Kings 2 Motor City (2011) Unrated.PL.AC3.720p.BRRip.XviD-TLRG |   Lektor PL
Uwaga! Linki nie zakodowane tylko dla zarejestrowanych użytkowników!

Nie masz konta? Zarejestruj się za darmo!
----------------
Links are not encoded only for registered users only! Plese login or register!



Użytkownik VIP

MaRCiNJaCKUżytkownik

#1 | Dodany: 19 Październik 2012 12:07

wink

Informacje

Jeżeli chcesz skomentować artykuł musisz być zarejestrowany na stronie.