EXSite.pl - Portal ze wszystkim Mamy tutaj wszystko

NIE MASZ JESZCZE KONTA? ZAREJESTRUJ SIĘ ZA DARMO!   
Przypomnij hasło X

Dzie? Próby / Training Day (2001) PL.AC3.720p.BRRip.XviD-TLRG | Lektor PL

Dodał: ampatinis 19 Październik 2012 12:19


Dzie? Próby / Training Day (2001) PL.AC3.720p.BRRip.XviD-TLRG | Lektor PL

Dzie? Próby / Training Day (2001) PL.AC3.720p.BRRip.XviD-TLRG | Lektor PL

Dzie? Próby / Training Day (2001) PL.AC3.720p.BRRip.XviD-TLRG | Lektor PL

produkcja: Australia , USA
gatunek: Dramat, Kryminał
data premiery: 2002-02-01 (Polska) , 2001-09-02 (świat)
reżyseria: Antoine Fuqua
scenariusz: David Ayer
zdjęcia: Mauro Fiore
muzyka: Mark Mancina

OPIS: Każdego dnia na ulicach ameryka?skich dzielnic biedoty toczy się wojna między mieszka?cami, handlarzami narkotyków i ludźmi, którzy przysięgli chronić jednych przed drugimi. Ta wojna pociąga za sobą liczne ofiary, nie tylko wśród członków gangów, ale także w szeregach policji. Sierżant Alonzo Harris (Denzel Washington) jest detektywem z wydziału narkotykowego policji Los Angeles. Pracuje tam już 13 lat i przez ten czas zasłużył sobie na miano kontrowersyjnego gliniarza, nieustannie przekraczając granicę między tym, co legalne i nielegalne. Jego początkowy zapał i optymizm wygasł w trakcie codziennej służby, w której postępowanie zgodnie z prawem oznaczałoby dla niego śmierć. Paradoksalnie, ściganie przestępców wymaga od Alonza i jego kolegów naruszania prawa. Jake Hoyt (Ethan Hawke), młody kandydat na gliniarza, ma odbyć staż u boku doświadczonego agenta Alonzo Harrisa i poznać specyfikę pracy w wydziale narkotykowym. Nawet nie przypuszcza, że wróci do domu jako zupełnie ktoś inny. W ciągu jednego dnia młody rekrut musi przekonać swojego charyzmatycznego zwierzchnika, że nadaje się do tej bardzo niebezpiecznej pracy.


Video
ID : 0
Format : MPEG-4 Visual
Format profile : Advanced Simple@L5
Format settings, BVOP : 2
Format settings, QPel : Yes
Format settings, GMC : No warppoints
Format settings, Matrix : Default (H.263)
Codec ID : XVID
Codec ID/Hint : XviD
Duration : 2h 2mn
Bit rate : 4 001 Kbps
Width : 1 280 pixels
Height : 544 pixels
Display aspect ratio : 2.35:1
Frame rate : 23.976 fps
Color space : YUV
Chroma subsampling : 4:2:0
Bit depth : 8 bits
Scan type : Progressive
Compression mode : Lossy
Bits/(Pixel*Frame) : 0.240
Stream size : 3.41 GiB (90%)
Writing library : XviD 1.2.1 (UTC 2008-12-04)

Audio
ID : 1
Format : AC-3
Format/Info : Audio Coding 3
Mode extension : CM (complete main)
Codec ID : 2000
Duration : 2h 2mn
Bit rate mode : Constant
Bit rate : 448 Kbps
Channel(s) : 6 channels
Channel positions : Front: L C R, Side: L R, LFE
Sampling rate : 48.0 KHz
Bit depth : 16 bits
Compression mode : Lossy
Stream size : 391 MiB (10%)
Alignment : Split accross interleaves
Interleave, duration : 42 ms (1.00 video frame)
Interleave, preload duration : 500 ms


Dzie? Próby / Training Day (2001) PL.AC3.720p.BRRip.XviD-TLRG | Lektor PL

Dzie? Próby / Training Day (2001) PL.AC3.720p.BRRip.XviD-TLRG | Lektor PL

Dzie? Próby / Training Day (2001) PL.AC3.720p.BRRip.XviD-TLRG | Lektor PL
Uwaga! Linki nie zakodowane tylko dla zarejestrowanych użytkowników!

Nie masz konta? Zarejestruj się za darmo!
----------------
Links are not encoded only for registered users only! Plese login or register!



Użytkownik VIP

MaRCiNJaCKUżytkownik

#1 | Dodany: 19 Październik 2012 13:54

thx
Użytkownik VIP

płebloUżytkownik

#2 | Dodany: 12 Kwiecień 2013 22:47

linki Proszę reup na EF
Użytkownik VIP

kartaczVIP Uploader

#3 | Dodany: 17 Listopad 2013 10:03

Dzień próby / Training Day (2001) PL.AC3.HQDVDRip.XviD-Wojtylek


RIP INFO:
Training.Day.2001.PL.AC3.HQDVDRip.XviD-Wojtylek

Video............: 720 x 304, XviD, 1874 kbps
Audio............: AC3, 448 kbps, 6 kanałów
Czas trwania.....: 117 min.
Język............: Polski Lektor
Rozmiar..........: 1900 MB
Rodzaj kompresji.: Brak
Zawartość uploadu: plik .avi
Dane naprawcze...: Brak


~~1 Plik - Pobierasz i Oglądasz~~

Uwaga! Linki nie zakodowane tylko dla zarejestrowanych użytkowników!

Nie masz konta? Zarejestruj się za darmo!
----------------
Links are not encoded only for registered users only! Plese login or register!

Informacje

Jeżeli chcesz skomentować artykuł musisz być zarejestrowany na stronie.