EXSite.pl - Portal ze wszystkim Mamy tutaj wszystko

NIE MASZ JESZCZE KONTA? ZAREJESTRUJ SIĘ ZA DARMO!   
Przypomnij hasło X

Kontakt / Contact (1997) PL.AC3.720p.BRRip.XviD-TLRG | Lektor PL

Dodał: ampatinis 23 Październik 2012 18:14


Kontakt / Contact (1997) PL.AC3.720p.BRRip.XviD-TLRG | Lektor PL

Kontakt / Contact (1997) PL.AC3.720p.BRRip.XviD-TLRG | Lektor PL

Kontakt / Contact (1997) PL.AC3.720p.BRRip.XviD-TLRG | Lektor PL

Z odległej gwiazdy Vega dociera na Ziemię sygnał radiowy, który odbiera Ellie Arroway. Gdy kraje z całego świata jednoczą się w próbach odkodowania przekazu, nasza planeta przyjmuje go z nadzieją i strachem, ponieważ zawiera on szczegółowe plany międzygalaktycznego pojazdu, mogącego przetransportować pasażerów w odległą przestrze? kosmiczną.


Video
ID : 0
Format : MPEG-4 Visual
Format profile : Advanced Simple@L5
Format settings, BVOP : 1
Format settings, QPel : Yes
Format settings, GMC : No warppoints
Format settings, Matrix : Default (MPEG)
Codec ID : XVID
Codec ID/Hint : XviD
Duration : 2h 29mn
Bit rate : 3 449 Kbps
Width : 1 280 pixels
Height : 534 pixels
Display aspect ratio : 2.40:1
Frame rate : 23.976 fps
Color space : YUV
Chroma subsampling : 4:2:0
Bit depth : 8 bits
Scan type : Progressive
Compression mode : Lossy
Bits/(Pixel*Frame) : 0.210
Stream size : 3.61 GiB (94%)
Writing library : XviD 1.2.1 (UTC 2008-12-04)

Audio
ID : 1
Format : AC-3
Format/Info : Audio Coding 3
Format profile : Dolby Digital
Mode extension : CM (complete main)
Codec ID : 2000
Duration : 2h 29mn
Bit rate mode : Constant
Bit rate : 192 Kbps
Channel(s) : 2 channels
Channel positions : Front: L R
Sampling rate : 48.0 KHz
Bit depth : 16 bits
Compression mode : Lossy
Stream size : 206 MiB (5%)
Alignment : Split accross interleaves
Interleave, duration : 42 ms (1.00 video frame)
Interleave, preload duration : 500 ms


Kontakt / Contact (1997) PL.AC3.720p.BRRip.XviD-TLRG | Lektor PL

Kontakt / Contact (1997) PL.AC3.720p.BRRip.XviD-TLRG | Lektor PL

Kontakt / Contact (1997) PL.AC3.720p.BRRip.XviD-TLRG | Lektor PL
Uwaga! Linki nie zakodowane tylko dla zarejestrowanych użytkowników!

Nie masz konta? Zarejestruj się za darmo!
----------------
Links are not encoded only for registered users only! Plese login or register!



Informacje

Jeżeli chcesz skomentować artykuł musisz być zarejestrowany na stronie.