EXSite.pl - Portal ze wszystkim Mamy tutaj wszystko

NIE MASZ JESZCZE KONTA? ZAREJESTRUJ SIĘ ZA DARMO!   
Przypomnij hasło X

Infiltracja / The Departed (2006) PL.AC3.720p.BRRip.XviD-TLRG | Lektor PL

Dodał: ampatinis 23 Październik 2012 18:17


Infiltracja / The Departed (2006) PL.AC3.720p.BRRip.XviD-TLRG | Lektor PL

Infiltracja / The Departed (2006) PL.AC3.720p.BRRip.XviD-TLRG | Lektor PL

Infiltracja / The Departed (2006) PL.AC3.720p.BRRip.XviD-TLRG | Lektor PL

reżyseria: Martin Scorsese
scenariusz: William Monahan, Felix Chong (więcej...)
premiera: 27 października 2006 (Polska) 26 września 2006 (świat)
produkcja: Hongkong, USA
gatunek: Dramat, Kryminał, Thriller

Zrealizowany z hollywoodzkim rozmachem i gwiazdorską obsadą, remake światowego hitu "Infernal Affairs" z 2002 roku. Akcja filmu rozgrywa się w południowym Bostonie, gdzie policja stanowa toczy zażartą walkę z przestępczością zorganizowaną. Młody tajny agent policji, Billy Costigan (Leonardo DiCaprio), otrzymuje od przełożonego Olivera Queenana (Martin Sheen) rozkaz przeniknięcia do struktur mafijnych, którymi rządzi Frank Costello (Jack Nicholson). Podczas gdy Billy szybko zdobywa zaufanie bossa, Colin Sullivan (Matt Damon) - zatwardziały młody przestępca, który już jako kadet Akademii Policyjnej pełnił rolę mafijnego informatora - zostaje awansowany na stanowisko dowódcze w Wydziale Spraw Wewnętrznych. Każdego z nich pochłania podwójne życie. Kiedy zarówno przestępcy, jak i stróże prawa, wpadają na trop wrogiej wtyczki we własnych szeregach, obaj bohaterowie rozpoczynają wyścig o to, kto pierwszy odkryje tożsamość drugiego, by tym samym uratować własną skórę...


Video
ID : 0
Format : MPEG-4 Visual
Format profile : Advanced Simple@L5
Format settings, BVOP : 2
Format settings, QPel : Yes
Format settings, GMC : No warppoints
Format settings, Matrix : Default (H.263)
Codec ID : XVID
Codec ID/Hint : XviD
Duration : 2h 31mn
Bit rate : 3 302 Kbps
Width : 1 280 pixels
Height : 720 pixels
Display aspect ratio : 16:9
Frame rate : 23.976 fps
Color space : YUV
Chroma subsampling : 4:2:0
Bit depth : 8 bits
Scan type : Progressive
Compression mode : Lossy
Bits/(Pixel*Frame) : 0.149
Stream size : 3.49 GiB (89%)
Writing library : XviD 1.2.1 (UTC 2008-12-04)

Audio
ID : 1
Format : AC-3
Format/Info : Audio Coding 3
Mode extension : CM (complete main)
Codec ID : 2000
Duration : 2h 31mn
Bit rate mode : Constant
Bit rate : 384 Kbps
Channel(s) : 6 channels
Channel positions : Front: L C R, Side: L R, LFE
Sampling rate : 48.0 KHz
Bit depth : 16 bits
Compression mode : Lossy
Stream size : 416 MiB (10%)
Alignment : Split accross interleaves
Interleave, duration : 42 ms (1.00 video frame)
Interleave, preload duration : 500 ms



Infiltracja / The Departed (2006) PL.AC3.720p.BRRip.XviD-TLRG | Lektor PL
Uwaga! Linki nie zakodowane tylko dla zarejestrowanych użytkowników!

Nie masz konta? Zarejestruj się za darmo!
----------------
Links are not encoded only for registered users only! Plese login or register!



Użytkownik VIP

MaRCiNJaCKUżytkownik

#1 | Dodany: 19 Luty 2013 10:14

thx

Informacje

Jeżeli chcesz skomentować artykuł musisz być zarejestrowany na stronie.