EXSite.pl - Portal ze wszystkim Mamy tutaj wszystko

NIE MASZ JESZCZE KONTA? ZAREJESTRUJ SIĘ ZA DARMO!   
Przypomnij hasło X

Prawdziwe męstwo / True Grit (2010) PL.AC3.720p.BRRip.XviD-TLRG | Lektor PL

Dodał: ampatinis 23 Październik 2012 18:21


Prawdziwe męstwo / True Grit (2010) PL.AC3.720p.BRRip.XviD-TLRG | Lektor PL

Prawdziwe męstwo / True Grit (2010) PL.AC3.720p.BRRip.XviD-TLRG | Lektor PL

Prawdziwe męstwo / True Grit (2010) PL.AC3.720p.BRRip.XviD-TLRG | Lektor PL

Czternastoletnia wieśniaczka Mattie Ross (Hailee Steinfeld) zrobi wszystko, aby dopaść mordercę swojego ojca. Zatrudniony przez nią najtwardszy szeryf w Stanach Zjednoczonych, człowiek o prawdziwie mocnym charakterze - Reuben J. "Rooster" Cogburn (Jeff Bridges) ma jej w tym pomóc. Nie zważając na jego lenistwo, zatwardziałość w grzechu i pija?stwo, bezwzględnie wierzy w powodzenie misji. Nieustannie nalega, aby towarzyszyć mu w poszukiwaniach zabójcy. Mimo początkowego sprzeciwu "Koguta", udaje się jej go przekonać i wyrusza z nim w niebezpieczną podróż śladami zbrodniarza. Dołącza do nich tajemniczy LaBoeuf (Matt Damon), obieżyświat z Teksasu, przekonany, że uda mu się wykorzystać Cogburna dla własnych interesów. Trop wiedzie w sam środek ziem Indian, gdzie niezwykłe trio napotka wiele przygód i niespodzianek, testując swój charakter, pokazując prawdziwe męstwo.

Info:
gatunek: Dramat, Western
premiera: 11 lutego 2011 (Polska) 14 grudnia 2010 (świat)
produkcja: USA
reżyseria: Ethan Coen, Joel Coen
scenariusz: Ethan Coen, Joel Coen


Video
ID : 0
Format : MPEG-4 Visual
Format profile : Advanced Simple@L5
Format settings, BVOP : 2
Format settings, QPel : Yes
Format settings, GMC : No warppoints
Format settings, Matrix : Default (H.263)
Codec ID : XVID
Codec ID/Hint : XviD
Duration : 1h 50mn
Bit rate : 4 100 Kbps
Width : 1 280 pixels
Height : 544 pixels
Display aspect ratio : 2.35:1
Frame rate : 23.976 fps
Color space : YUV
Chroma subsampling : 4:2:0
Bit depth : 8 bits
Scan type : Progressive
Compression mode : Lossy
Bits/(Pixel*Frame) : 0.246
Stream size : 3.16 GiB (90%)
Writing library : XviD 1.2.1 (UTC 2008-12-04)

Audio
ID : 1
Format : AC-3
Format/Info : Audio Coding 3
Mode extension : CM (complete main)
Codec ID : 2000
Duration : 1h 50mn
Bit rate mode : Constant
Bit rate : 448 Kbps
Channel(s) : 6 channels
Channel positions : Front: L C R, Side: L R, LFE
Sampling rate : 48.0 KHz
Bit depth : 16 bits
Compression mode : Lossy
Stream size : 354 MiB (10%)
Alignment : Split accross interleaves
Interleave, duration : 42 ms (1.00 video frame)
Interleave, preload duration : 500 ms


Prawdziwe męstwo / True Grit (2010) PL.AC3.720p.BRRip.XviD-TLRG | Lektor PL

Prawdziwe męstwo / True Grit (2010) PL.AC3.720p.BRRip.XviD-TLRG | Lektor PL

Prawdziwe męstwo / True Grit (2010) PL.AC3.720p.BRRip.XviD-TLRG | Lektor PL
Uwaga! Linki nie zakodowane tylko dla zarejestrowanych użytkowników!

Nie masz konta? Zarejestruj się za darmo!
----------------
Links are not encoded only for registered users only! Plese login or register!



Użytkownik VIP

GHunter Użytkownik

#1 | Dodany: 23 Październik 2012 18:21

Prawdziwe męstwo / True Grit (2010) PL.BRRip.XviD-BiDA / Lektor PL


Format : AVI at 880 Kb/s
Length : 695 MB for 1h 50 min. 19s 29ms

Video #0 : MPEG-4 Visual at 763 Kb/s
Aspect : 640 x 272 (2.353) at 23.976 fps

Audio #0 : MPEG Audio at 112 Kb/s
Infos : 2 kanały, 48,0 KHz


1 link - ściągasz - odpalasz - nie ma pitu pitu ;)
Uwaga! Linki nie zakodowane tylko dla zarejestrowanych użytkowników!

Nie masz konta? Zarejestruj się za darmo!
----------------
Links are not encoded only for registered users only! Plese login or register!


Użytkownik VIP

darkk`Użytkownik

#2 | Dodany: 23 Październik 2012 19:11

Prawdziwe męstwo / True Grit (2010)
PL.BRRip.XviD-BiDA / Lektor PL


DANE TECHNICZNE:
Format : AVI at 888 Kb/s
Length : 701 MB for 1h 50 min. 20s 406ms
Video : MPEG-4 Visual at 763 Kb/s
Aspect : 640 x 272 (2.353) at 23.976 fps
Audio : MPEG Audio at 112 Kb/s
Infos : 2 kanały, 48,0 KHz

OPIS UPLOADU:
Wielkość Uploadu: 701 MB
Rodzaj Kompresji: brak
Zawartość Uploadu: Plik .avi
Wersja Językowa: Lektor PL
Hasło : brak hasła

DOWNLOAD
TYLKO JEDEN LiNK / POBiERASZ i OGLĄDASZ / BEZ WYPAKOWYWANiA
Uwaga! Linki nie zakodowane tylko dla zarejestrowanych użytkowników!

Nie masz konta? Zarejestruj się za darmo!
----------------
Links are not encoded only for registered users only! Plese login or register!

Informacje

Jeżeli chcesz skomentować artykuł musisz być zarejestrowany na stronie.