EXSite.pl - Portal ze wszystkim Mamy tutaj wszystko

NIE MASZ JESZCZE KONTA? ZAREJESTRUJ SIĘ ZA DARMO!   
Przypomnij hasło X

Prawnik z Lincolna / The Lincoln Lawyer (2011) PL.AC3.720p.BRRip.XviD-TLRG | Lektor PL

Dodał: ampatinis 23 Październik 2012 18:32


Prawnik z Lincolna / The Lincoln Lawyer (2011) PL.AC3.720p.BRRip.XviD-TLRG | Lektor PL

Prawnik z Lincolna / The Lincoln Lawyer (2011) PL.AC3.720p.BRRip.XviD-TLRG | Lektor PL

Prawnik z Lincolna / The Lincoln Lawyer (2011) PL.AC3.720p.BRRip.XviD-TLRG | Lektor PL

Film oparty na powieści Michaela Conolly’ego z 2005 roku. Mick Haller (Matthew McConaughey) to adwokat prowadzący praktykę w Los Angeles. Nie pracuje w zwykłej kancelarii, a zamiast tego porusza się po mieście ze swoim kierowcą w klasycznej, czarnej limuzynie marki Lincoln. Jego klientela to kryminaliści małego i średniego kalibru. Mick wychodzi z założenia, że jedyny werdykt jaki go interesuje to uniewinnienie – dobrze zna swoich klientów i ich grzeszki, lecz przymyka na nie oko. W istocie najbardziej obawia się, że człowiek, którego broni będzie naprawdę niewinny. Wygodne zasady Micka ulegną zmianie w trakcie współpracy z nowym klientem – młodym chłopakiem z bogatej rodziny (Ryan Philippe), oskarżonym o pobicie dziewczyny do towarzystwa. Mick będzie musiał się zmierzyć z pewnymi zaniedbanymi sprawami z przeszłości i ponownie zdefiniować swój etyczny kodeks. Sprawa młodego klienta znacznie się skomplikuje i przybierze nieoczekiwany obrót.


Video
ID : 0
Format : MPEG-4 Visual
Format profile : Advanced Simple@L5
Format settings, BVOP : 1
Format settings, QPel : Yes
Format settings, GMC : No warppoints
Format settings, Matrix : Default (MPEG)
Codec ID : XVID
Codec ID/Hint : XviD
Duration : 1h 58mn
Bit rate : 4 004 Kbps
Width : 1 280 pixels
Height : 544 pixels
Display aspect ratio : 2.35:1
Frame rate : 23.976 fps
Color space : YUV
Chroma subsampling : 4:2:0
Bit depth : 8 bits
Scan type : Progressive
Compression mode : Lossy
Bits/(Pixel*Frame) : 0.240
Stream size : 3.31 GiB (90%)
Writing library : XviD 1.2.1 (UTC 2008-12-04)

Audio
ID : 1
Format : AC-3
Format/Info : Audio Coding 3
Mode extension : CM (complete main)
Codec ID : 2000
Duration : 1h 58mn
Bit rate mode : Constant
Bit rate : 448 Kbps
Channel(s) : 6 channels
Channel positions : Front: L C R, Side: L R, LFE
Sampling rate : 48.0 KHz
Bit depth : 16 bits
Compression mode : Lossy
Stream size : 380 MiB (10%)
Alignment : Split accross interleaves
Interleave, duration : 42 ms (1.00 video frame)
Interleave, preload duration : 500 ms


Prawnik z Lincolna / The Lincoln Lawyer (2011) PL.AC3.720p.BRRip.XviD-TLRG | Lektor PL

Prawnik z Lincolna / The Lincoln Lawyer (2011) PL.AC3.720p.BRRip.XviD-TLRG | Lektor PL

Prawnik z Lincolna / The Lincoln Lawyer (2011) PL.AC3.720p.BRRip.XviD-TLRG | Lektor PL
Uwaga! Linki nie zakodowane tylko dla zarejestrowanych użytkowników!

Nie masz konta? Zarejestruj się za darmo!
----------------
Links are not encoded only for registered users only! Plese login or register!



Użytkownik VIP

GHunter Użytkownik

#1 | Dodany: 23 Październik 2012 18:33

:-)
Użytkownik VIP

darkk`Użytkownik

#2 | Dodany: 23 Październik 2012 19:07

Prawnik z Lincolna / The Lincoln Lawyer (2011)
PL.BRRip.XviD-B89 / Lektor PL

DANE TECHNICZNE:
Format : AVI at 830 Kbps
Length : 704 MiB for 1h 58mn 28s 942ms
Video : PEG-4 Visual at 709 Kbps
Aspect : 640 x 272 (2.353) at 23.976 fps
Audio : MPEG Audio at 112 Kbps
Infos : 2 channels, 48.0 KHz

OPIS UPLOADU:
Wielkość Uploadu: 704 MB
Rodzaj Kompresji: brak
Zawartość Uploadu: Plik .avi
Wersja Językowa: Lektor PL
Hasło : brak hasła

SCREENY:

DOWNLOAD
TYLKO JEDEN LiNK / POBiERASZ i OGLĄDASZ / BEZ WYPAKOWYWANiA
Uwaga! Linki nie zakodowane tylko dla zarejestrowanych użytkowników!

Nie masz konta? Zarejestruj się za darmo!
----------------
Links are not encoded only for registered users only! Plese login or register!
Użytkownik VIP

emekkUżytkownik

#3 | Dodany: 23 Październik 2012 20:22

thx

Informacje

Jeżeli chcesz skomentować artykuł musisz być zarejestrowany na stronie.