EXSite.pl - Portal ze wszystkim Mamy tutaj wszystko

NIE MASZ JESZCZE KONTA? ZAREJESTRUJ SIĘ ZA DARMO!   
Przypomnij hasło X

Sex story / No Strings Attached (2011) PL.AC3.720p.BRRip.XviD-TLRG | Lektor PL

Dodał: ampatinis 23 Październik 2012 18:43


Sex story / No Strings Attached (2011) PL.AC3.720p.BRRip.XviD-TLRG | Lektor PL

Sex story / No Strings Attached (2011) PL.AC3.720p.BRRip.XviD-TLRG | Lektor PL

Sex story / No Strings Attached (2011) PL.AC3.720p.BRRip.XviD-TLRG | Lektor PL

Dystrybucja: United International Pictures Sp z o.o.
Gatunek: Komedia rom.
Data premiery (świat): 21 stycznia 2011
Data premiery (Polska): 18 marca 2011
Reżyseria: Ivan Reitman
Scenariusz: Elizabeth Meriwether
Zdjęcia: Rogier Stoffers
Muzyka: John Debney
Czas trwania: 1 godz. 48 min.

Emma (Natalie Portman) i Adam (Ashton Kutcher) przypadkowo spotykają się po latach. Ponieważ Emma cierpi na swego rodzaju "alergię na związki", a Adam zupełnie je odrzucił - zresztą dlatego, że jego ojciec (Kevin Kline) zaczął spotykać się z jego byłą dziewczyną - oboje decydują wyrzec się emocji, z jakimi ma się do czynienia będąc w romantycznym związku i zostać przyjaciółmi. Zero zaangażowania, kłamstw, zazdrości, wspólnych śniada?, tęsknoty... jednym słowem żadnych zobowiąza?.


Video
ID : 0
Format : MPEG-4 Visual
Format profile : Advanced Simple@L5
Format settings, BVOP : 2
Format settings, QPel : Yes
Format settings, GMC : No warppoints
Format settings, Matrix : Default (H.263)
Codec ID : XVID
Codec ID/Hint : XviD
Duration : 1h 47mn
Bit rate : 4 111 Kbps
Width : 1 280 pixels
Height : 536 pixels
Display aspect ratio : 2.40:1
Frame rate : 23.976 fps
Color space : YUV
Chroma subsampling : 4:2:0
Bit depth : 8 bits
Scan type : Progressive
Compression mode : Lossy
Bits/(Pixel*Frame) : 0.250
Stream size : 3.10 GiB (90%)
Writing library : XviD 1.2.1 (UTC 2008-12-04)

Audio
ID : 1
Format : AC-3
Format/Info : Audio Coding 3
Mode extension : CM (complete main)
Codec ID : 2000
Duration : 1h 47mn
Bit rate mode : Constant
Bit rate : 448 Kbps
Channel(s) : 6 channels
Channel positions : Front: L C R, Side: L R, LFE
Sampling rate : 48.0 KHz
Bit depth : 16 bits
Compression mode : Lossy
Stream size : 346 MiB (10%)
Alignment : Split accross interleaves
Interleave, duration : 42 ms (1.00 video frame)
Interleave, preload duration : 500 ms


Sex story / No Strings Attached (2011) PL.AC3.720p.BRRip.XviD-TLRG | Lektor PL

Sex story / No Strings Attached (2011) PL.AC3.720p.BRRip.XviD-TLRG | Lektor PL

Sex story / No Strings Attached (2011) PL.AC3.720p.BRRip.XviD-TLRG | Lektor PL
Uwaga! Linki nie zakodowane tylko dla zarejestrowanych użytkowników!

Nie masz konta? Zarejestruj się za darmo!
----------------
Links are not encoded only for registered users only! Plese login or register!



Użytkownik VIP

GHunter Użytkownik

#1 | Dodany: 23 Październik 2012 18:43

:-)
Użytkownik VIP

darkk`Użytkownik

#2 | Dodany: 23 Październik 2012 18:47

Sex Story / No Strings Attached (2011)
PL.PROPER.DVDRip.XviD-BiDA / Lektor PL

DANE TECHNICZNE:
Format : AVI at 946 Kb/s
Length : 700 MB for 1h 43 min. 25s 440ms
Video : MPEG-4 Visual at 821 Kb/s
Aspect : 640 x 272 (2.353) at 25.000 fps
Audio : MPEG Audio at 32,0 Kb/s
Infos : 2 kanały, 48,0 KHz

OPIS UPLOADU:
Wielkość Uploadu: 699 MB
Rodzaj Kompresji: Brak
Zawartość Uploadu: Plik .avi
Wersja Językowa: Lektor PL
Hasło : brak hasła

DOWNLOAD
TYLKO JEDEN LiNK / POBiERASZ i OGLĄDASZ / BEZ WYPAKOWYWANiA
Uwaga! Linki nie zakodowane tylko dla zarejestrowanych użytkowników!

Nie masz konta? Zarejestruj się za darmo!
----------------
Links are not encoded only for registered users only! Plese login or register!

Użytkownik VIP

ssoberUżytkownik

#3 | Dodany: 23 Październik 2012 19:42

Luuuubie ten film!

Informacje

Jeżeli chcesz skomentować artykuł musisz być zarejestrowany na stronie.