EXSite.pl - Portal ze wszystkim Mamy tutaj wszystko

NIE MASZ JESZCZE KONTA? ZAREJESTRUJ SIĘ ZA DARMO!   
Przypomnij hasło X

Jak ugryźć 10 milionów / The Whole Nine Yards (2000) PL.AC3.720p.BRRip .XviD-TLRG | Lektor PL

Dodał: ampatinis 23 Październik 2012 18:49


Jak ugryźć 10 milionów / The Whole Nine Yards (2000) PL.AC3.720p.BRRip .XviD-TLRG | Lektor PL

Jak ugryźć 10 milionów / The Whole Nine Yards (2000) PL.AC3.720p.BRRip .XviD-TLRG | Lektor PL

Jak ugryźć 10 milionów / The Whole Nine Yards (2000) PL.AC3.720p.BRRip .XviD-TLRG | Lektor PL

reżyseria: Jonathan Lynn
scenariusz: Mitchell Kapner
premiera: 25 sierpnia 2000 (Polska) 17 lutego 2000 (świat)
produkcja: Kanada, USA
gatunek: Komedia kryminalna

Urodzony w Chicago dentysta przenosi się do Kanady i jest w szoku, bo okazuje się, że mieszka drzwi w drzwi z Jimmy "Tulipanem", słynnym zabójcą pracującym na zlecenie chicagowskiej mafii. Mimo wszystko sąsiedzi zaprzyjaźniają się. Kiedy jednak żona dentysty dowiaduje się, że za głowę "Tulipana", który zgodził się "sypać" policji, mafia wyznaczyła nagrodę postanawia go wydać.


Video
ID : 0
Format : MPEG-4 Visual
Format profile : Advanced Simple@L5
Format settings, BVOP : 1
Format settings, QPel : No
Format settings, GMC : No warppoints
Format settings, Matrix : Default (H.263)
Muxing mode : Packed bitstream
Codec ID : XVID
Codec ID/Hint : XviD
Duration : 1h 38mn
Bit rate : 4 398 Kbps
Width : 1 280 pixels
Height : 720 pixels
Display aspect ratio : 16:9
Frame rate : 23.976 fps
Original frame rate : 24.000 fps
Color space : YUV
Chroma subsampling : 4:2:0
Bit depth : 8 bits
Scan type : Progressive
Compression mode : Lossy
Bits/(Pixel*Frame) : 0.199
Stream size : 3.03 GiB (91%)
Writing library : XviD 1.2.1 (UTC 2008-12-04)

Audio
ID : 1
Format : AC-3
Format/Info : Audio Coding 3
Mode extension : CM (complete main)
Codec ID : 2000
Duration : 1h 38mn
Bit rate mode : Constant
Bit rate : 448 Kbps
Channel(s) : 6 channels
Channel positions : Front: L C R, Side: L R, LFE
Sampling rate : 48.0 KHz
Bit depth : 16 bits
Compression mode : Lossy
Stream size : 316 MiB (9%)
Alignment : Split accross interleaves
Interleave, duration : 42 ms (1.00 video frame)
Interleave, preload duration : 500 ms


Jak ugryźć 10 milionów / The Whole Nine Yards (2000) PL.AC3.720p.BRRip .XviD-TLRG | Lektor PL

Jak ugryźć 10 milionów / The Whole Nine Yards (2000) PL.AC3.720p.BRRip .XviD-TLRG | Lektor PL

Jak ugryźć 10 milionów / The Whole Nine Yards (2000) PL.AC3.720p.BRRip .XviD-TLRG | Lektor PL
Uwaga! Linki nie zakodowane tylko dla zarejestrowanych użytkowników!

Nie masz konta? Zarejestruj się za darmo!
----------------
Links are not encoded only for registered users only! Plese login or register!



Użytkownik VIP

pynka07Użytkownik

#1 | Dodany: 23 Październik 2012 19:39

Jeszcze 2czke prosze ok

Informacje

Jeżeli chcesz skomentować artykuł musisz być zarejestrowany na stronie.