EXSite.pl - Portal ze wszystkim Mamy tutaj wszystko

NIE MASZ JESZCZE KONTA? ZAREJESTRUJ SIĘ ZA DARMO!   
Przypomnij hasło X

Prometeusz / Prometheus (2012) SUB.PL.DVDRip.XviD-WiZARDS | Napisy PL

Dodał: ampatinis 24 Październik 2012 16:42


Prometeusz / Prometheus (2012) SUB.PL.DVDRip.XviD-WiZARDS | Napisy PL

Prometeusz / Prometheus (2012) SUB.PL.DVDRip.XviD-WiZARDS | Napisy PL

Prometeusz / Prometheus (2012) SUB.PL.DVDRip.XviD-WiZARDS | Napisy PL

czas trwania: 2 godz. 4 min.
gatunek: Thriller, Sci-Fi
premiera: 20 lipca 2012 (Polska) 30 maja 2012 (świat)
produkcja: USA
reżyseria: Ridley Scott
scenariusz: Jon Spaihts, Damon Lindelof

Oczekiwany z ogromnym zainteresowaniem najnowszy film Ridleya Scotta ("Robin Hood", "Królestwo niebieskie"), jego pierwszy film science fiction od czasu legendarnego "Łowcy androidów", którego akcja nawiązywać będzie do wątków słynnej serii o Obcym. W rolach głównych: niezapomniana Lisbeth Salander z trylogii "Millennium" Noomi Rapace i Michael Fassbender ("Bękarty wojny", "X-Men: Pierwsza klasa").


Video
ID : 0
Format : MPEG-4 Visual
Format profile : Advanced Simple@L5
Format settings, BVOP : 2
Format settings, QPel : No
Format settings, GMC : No warppoints
Format settings, Matrix : Default (H.263)
Codec ID : XVID
Codec ID/Hint : XviD
Duration : 1h 58mn
Bit rate : 920 Kbps
Width : 640 pixels
Height : 272 pixels
Display aspect ratio : 2.35:1
Frame rate : 25.000 fps
Color space : YUV
Chroma subsampling : 4:2:0
Bit depth : 8 bits
Scan type : Progressive
Compression mode : Lossy
Bits/(Pixel*Frame) : 0.211
Stream size : 781 MiB (87%)
Writing library : XviD 1.2.1 (UTC 2008-12-04)

Audio
ID : 1
Format : MPEG Audio
Format version : Version 1
Format profile : Layer 3
Mode : Joint stereo
Codec ID : 55
Codec ID/Hint : MP3
Duration : 1h 58mn
Bit rate mode : Constant
Bit rate : 128 Kbps
Channel(s) : 2 channels
Sampling rate : 48.0 KHz
Compression mode : Lossy
Delay relative to video : 432ms
Stream size : 109 MiB (12%)
Alignment : Aligned on interleaves
Interleave, duration : 40 ms (1.00 video frame)
Interleave, preload duration : 504 ms
Writing library : LAME3.99r
Encoding settings : -m j -V 4 -q 2 -lowpass 17 -b 128


Prometeusz / Prometheus (2012) SUB.PL.DVDRip.XviD-WiZARDS | Napisy PL

Prometeusz / Prometheus (2012) SUB.PL.DVDRip.XviD-WiZARDS | Napisy PL

Prometeusz / Prometheus (2012) SUB.PL.DVDRip.XviD-WiZARDS | Napisy PL
Uwaga! Linki nie zakodowane tylko dla zarejestrowanych użytkowników!

Nie masz konta? Zarejestruj się za darmo!
----------------
Links are not encoded only for registered users only! Plese login or register!



Użytkownik VIP

darkwizardUżytkownik

#1 | Dodany: 24 Październik 2012 16:50

Prometeusz / Prometheus (2012) PL.DVDRip.XviD-B89 / Lektor PL




Format : AVI at 824 Kb/s
Length : 700 MB for 1h 58 min. 42s 520ms

Video #0 : MPEG-4 Visual at 703 Kb/s
Aspect : 608 x 240 (2.533) at 25.000 fps

Audio #0 : MPEG Audio at 112 Kb/s
Infos : 2 kanały, 48,0 KHz





Szybki serwer dla free userow
Uwaga! Linki nie zakodowane tylko dla zarejestrowanych użytkowników!

Nie masz konta? Zarejestruj się za darmo!
----------------
Links are not encoded only for registered users only! Plese login or register!

tylko darmowe hosty
Użytkownik VIP

ssoberUżytkownik

#2 | Dodany: 24 Październik 2012 19:24

Prometeusz / Prometheus (2012) PL.DVDRip.XviD.AC3-sav / Lektor PL




DANE TECHNICZNE:
JEZYK..........: polski lektor
SOURCE.........: DVD9 / HDBT
CZAS TRWANiA...: 1:58:42
ViDEO..........: XviD, 1264 kbps, rozdz. 720 x 304
AUDiO..........: AC3 | 6 ch | 384 Kbps


~DOWNLOAD~



EGOFILES.COM
Uwaga! Linki nie zakodowane tylko dla zarejestrowanych użytkowników!

Nie masz konta? Zarejestruj się za darmo!
----------------
Links are not encoded only for registered users only! Plese login or register!


HELLSHARE.PL
Uwaga! Linki nie zakodowane tylko dla zarejestrowanych użytkowników!

Nie masz konta? Zarejestruj się za darmo!
----------------
Links are not encoded only for registered users only! Plese login or register!


TURBOBIT.NET
Uwaga! Linki nie zakodowane tylko dla zarejestrowanych użytkowników!

Nie masz konta? Zarejestruj się za darmo!
----------------
Links are not encoded only for registered users only! Plese login or register!


FASTSHARE.CZ
Uwaga! Linki nie zakodowane tylko dla zarejestrowanych użytkowników!

Nie masz konta? Zarejestruj się za darmo!
----------------
Links are not encoded only for registered users only! Plese login or register!





Prometeusz / Prometheus (2012) PL.DVDRip.XviD-BiDA / Lektor PL




DANE TECHNICZNE:
Format : AVI at 795 Kb/s
Length : 703 MB for 2h 3 min. 36s 743ms

Video #0 : MPEG-4 Visual at 662 Kb/s
Aspect : 640 x 272 (2.353) at 23.976 fps

Audio #0 : AC-3 at 128 Kb/s
Infos : 2 kanały, 48,0 KHz



~DOWNLOAD~



EGOFILES.COM
Uwaga! Linki nie zakodowane tylko dla zarejestrowanych użytkowników!

Nie masz konta? Zarejestruj się za darmo!
----------------
Links are not encoded only for registered users only! Plese login or register!


HELLSHARE.PL
Uwaga! Linki nie zakodowane tylko dla zarejestrowanych użytkowników!

Nie masz konta? Zarejestruj się za darmo!
----------------
Links are not encoded only for registered users only! Plese login or register!


TURBOBIT.NET
Uwaga! Linki nie zakodowane tylko dla zarejestrowanych użytkowników!

Nie masz konta? Zarejestruj się za darmo!
----------------
Links are not encoded only for registered users only! Plese login or register!


FASTSHARE.CZ
Uwaga! Linki nie zakodowane tylko dla zarejestrowanych użytkowników!

Nie masz konta? Zarejestruj się za darmo!
----------------
Links are not encoded only for registered users only! Plese login or register!


Informacje

Jeżeli chcesz skomentować artykuł musisz być zarejestrowany na stronie.