EXSite.pl - Portal ze wszystkim Mamy tutaj wszystko

NIE MASZ JESZCZE KONTA? ZAREJESTRUJ SIĘ ZA DARMO!   
Przypomnij hasło X

Jesteśmy nocą / Nienasycone / Wir sind die Nacht (2010) PL.BRRip.XviD-WiZARDS | Lektor PL

Dodał: ampatinis 25 Październik 2012 19:32


Jesteśmy nocą / Nienasycone / Wir sind die Nacht (2010) PL.BRRip.XviD-WiZARDS | Lektor PL

Jesteśmy nocą / Nienasycone / Wir sind die Nacht (2010) PL.BRRip.XviD-WiZARDS | Lektor PL

Jesteśmy nocą / Nienasycone / Wir sind die Nacht (2010) PL.BRRip.XviD-WiZARDS | Lektor PL

czas trwania: 1 godz. 40 min.
gatunek: Fantasy, Horror, Melodramat
premiera: 14 października 2010 (świat)
produkcja: Niemcy
reżyseria: Dennis Gansel
scenariusz: Jan Berger, Dennis Gansel

Lena to nastolatka, która należy do trudnej młodzieży i ma problemy z prawem. Dziewczyna nie potrafi porozumieć się ze swoimi rodzicami, nie ma także przyjaciół. Pewnego razu dostaje się na zamkniętą imprezę, na której poznaje trzy tajemnicze kobiety, które okazują się być wampirzycami. Bogata i piękna Luiza przewodniczy pozostałej dwójce, Norze i Charlocie. Luiza wykorzystując nieśmiałość Leny, namawia ją na przyłączenie się do grupy. Dziewczyna zostaje wampirzycą, od tej pory zaczyna poznawać dobre i złe strony nieśmiertelności. Dzięki zmianie czuje się wreszcie wolna, śmiało korzysta z bogactwa i luksusu. Każdej nocy wampirzyce zabijają wiele niewinnych ludzi, a liczba popełnionych morderstw szybko rośnie. śledztwo w tej sprawie prowadzi Tom Serner, znajomy Leny z czasów jej śmiertelnego życia.


Format : AVI
Format/Info : Audio Video Interleave
File size : 699 MiB
Duration : 1h 39mn
Overall bit rate : 980 Kbps
Writing application : VirtualDubMod 1.5.10.2 (build 2542/release)
Writing library : VirtualDubMod build 2542/release

Video
ID : 0
Format : MPEG-4 Visual
Format profile : Advanced Simple@L5
Format settings, BVOP : 1
Format settings, QPel : No
Format settings, GMC : No warppoints
Format settings, Matrix : Custom
Codec ID : XVID
Codec ID/Hint : XviD
Duration : 1h 39mn
Bit rate : 843 Kbps
Width : 640 pixels
Height : 272 pixels
Display aspect ratio : 2.35:1
Frame rate : 24.000 fps
Color space : YUV
Chroma subsampling : 4:2:0
Bit depth : 8 bits
Scan type : Progressive
Compression mode : Lossy
Bits/(Pixel*Frame) : 0.202
Stream size : 601 MiB (86%)
Writing library : XviD 1.2.1 (UTC 2008-12-04)

Audio
ID : 1
Format : MPEG Audio
Format version : Version 1
Format profile : Layer 3
Mode : Joint stereo
Mode extension : MS Stereo
Codec ID : 55
Codec ID/Hint : MP3
Duration : 1h 39mn
Bit rate mode : Constant
Bit rate : 128 Kbps
Channel(s) : 2 channels
Sampling rate : 48.0 KHz
Compression mode : Lossy
Stream size : 91.2 MiB (13%)
Alignment : Aligned on interleaves
Interleave, duration : 42 ms (1.00 video frame)
Interleave, preload duration : 504 ms
Writing library : LAME3.99r
Encoding settings : -m j -V 4 -q 2 -lowpass 17 -b 128


Jesteśmy nocą / Nienasycone / Wir sind die Nacht (2010) PL.BRRip.XviD-WiZARDS | Lektor PL

Jesteśmy nocą / Nienasycone / Wir sind die Nacht (2010) PL.BRRip.XviD-WiZARDS | Lektor PL

Jesteśmy nocą / Nienasycone / Wir sind die Nacht (2010) PL.BRRip.XviD-WiZARDS | Lektor PL
Uwaga! Linki nie zakodowane tylko dla zarejestrowanych użytkowników!

Nie masz konta? Zarejestruj się za darmo!
----------------
Links are not encoded only for registered users only! Plese login or register!



Użytkownik VIP

darkk`Użytkownik

#1 | Dodany: 25 Październik 2012 20:12

Jesteśmy nocą / Nienasycone / Wir sind die Nacht (2010)
PL.BRRip.XviD-BiDA / Lektor PL


DANE TECHNICZNE:
Format : AVI at 1.021 Kb/s
Length : 698 MB for 1h 35 min. 35s 280ms
Video : MPEG-4 Visual at 888 Kb/s
Aspect : 640 x 272 (2.353) at 25.000 fps
Audio : MPEG Audio at 128 Kb/s
Infos : 2 kanały, 48,0 KHz

OPIS UPLOADU:
Wielkość Uploadu: 698 MB
Rodzaj Kompresji: brak
Zawartość Uploadu: Plik .avi
Wersja Językowa: Lektor PL
Hasło : brak hasła

DOWNLOAD
POJEDYNCZE LINKI / BEZ KOMPRESJI
Uwaga! Linki nie zakodowane tylko dla zarejestrowanych użytkowników!

Nie masz konta? Zarejestruj się za darmo!
----------------
Links are not encoded only for registered users only! Plese login or register!
Użytkownik VIP

darkwizardUżytkownik

#2 | Dodany: 25 Październik 2012 20:18

Jesteśmy nocą / Wir sind die Nacht (2010) Lektor.PL.BRRip.XviD-BiDA




Format : AVI at 1 021 Kbps
Length : 698 MiB for 1h 35mn 35s 280ms

Video #0 : MPEG-4 Visual at 888 Kbps
Aspect : 640 x 272 (2.353) at 25.000 fps

Audio #0 : MPEG Audio at 128 Kbps
Infos : 2 channels, 48.0 KHz




Szybkie serwery dla free userow

Uwaga! Linki nie zakodowane tylko dla zarejestrowanych użytkowników!

Nie masz konta? Zarejestruj się za darmo!
----------------
Links are not encoded only for registered users only! Plese login or register!
tylko darmowe hosty
Użytkownik VIP

ssoberUżytkownik

#3 | Dodany: 25 Październik 2012 21:04

Jesteśmy nocą / Nienasycone / Wir sind die Nacht (2010) PL.BRRip.XviD-BiDA / Lektor PL




DANE TECHNICZNE:
Format : AVI at 1.021 Kb/s
Length : 698 MB for 1h 35 min. 35s 280ms

Video #0 : MPEG-4 Visual at 888 Kb/s
Aspect : 640 x 272 (2.353) at 25.000 fps

Audio #0 : MPEG Audio at 128 Kb/s
Infos : 2 kanały, 48,0 KHz



~DOWNLOAD~



EGOFILES.COM
Uwaga! Linki nie zakodowane tylko dla zarejestrowanych użytkowników!

Nie masz konta? Zarejestruj się za darmo!
----------------
Links are not encoded only for registered users only! Plese login or register!


HELLSHARE.PL
Uwaga! Linki nie zakodowane tylko dla zarejestrowanych użytkowników!

Nie masz konta? Zarejestruj się za darmo!
----------------
Links are not encoded only for registered users only! Plese login or register!


TURBOBIT.NET
Uwaga! Linki nie zakodowane tylko dla zarejestrowanych użytkowników!

Nie masz konta? Zarejestruj się za darmo!
----------------
Links are not encoded only for registered users only! Plese login or register!

Informacje

Jeżeli chcesz skomentować artykuł musisz być zarejestrowany na stronie.