EXSite.pl - Portal ze wszystkim Mamy tutaj wszystko

NIE MASZ JESZCZE KONTA? ZAREJESTRUJ SIĘ ZA DARMO!   
Przypomnij hasło X

Sanktuarium 3D / Hidden 3D (2011) PL.BRRip.XviD.AC3-WiZARDS | Lektor PL

Dodał: ampatinis 7 Listopad 2012 12:08


Sanktuarium 3D / Hidden 3D (2011) PL.BRRip.XviD.AC3-WiZARDS | Lektor PL

Sanktuarium 3D / Hidden 3D (2011) PL.BRRip.XviD.AC3-WiZARDS | Lektor PL

Sanktuarium 3D / Hidden 3D (2011) PL.BRRip.XviD.AC3-WiZARDS | Lektor PL

czas trwania: 1 godz. 20 min.
gatunek: Horror
premiera: 28 października 2011 (Polska) 21 kwietnia 2011 (świat)
produkcja: Kanada, Włochy
reżyseria: Antoine Thomas
scenariusz: Alan Smithy, Alana Smithy


Po śmierci matki, Brian Karter (Sean Clement) dowiaduje się, że odziedziczył po niej ośrodek, w którym testowano nowatorskie i mocno kontrowersyjne metody leczenia uzależnie?. Wraz z przyjaciółmi Brian postanawia zwiedzić cieszący się złą sławą szpital. Poznaje w nim tajemniczego współpracownika nieboszczki i dzięki niemu odnajduje przejście do podziemi, które skrywają mrożące krew w żyłach pamiątki po badaniach naukowców. Wkrótce Brian przekona się, że to na nim skupi się zemsta istot, które żądają wyrównania krzywd za nieludzkie eksperymenty...


Format : AVI
Format/Info : Audio Video Interleave
File size : 1.37 GiB
Duration : 1h 21mn
Overall bit rate : 2 400 Kbps
Writing application : VirtualDubMod 1.5.10.2 (build 2540/release)
Writing library : VirtualDubMod build 2540/release

Video
ID : 0
Format : MPEG-4 Visual
Format profile : Advanced Simple@L5
Format settings, BVOP : 1
Format settings, QPel : No
Format settings, GMC : No warppoints
Format settings, Matrix : Default (MPEG)
Codec ID : XVID
Codec ID/Hint : XviD
Duration : 1h 21mn
Bit rate : 2 010 Kbps
Width : 720 pixels
Height : 400 pixels
Display aspect ratio : 16:9
Frame rate : 23.976 fps
Color space : YUV
Chroma subsampling : 4:2:0
Bit depth : 8 bits
Scan type : Progressive
Compression mode : Lossy
Bits/(Pixel*Frame) : 0.291
Stream size : 1.14 GiB (84%)
Writing library : XviD 62

Audio
ID : 1
Format : AC-3
Format/Info : Audio Coding 3
Mode extension : CM (complete main)
Codec ID : 2000
Duration : 1h 21mn
Bit rate mode : Constant
Bit rate : 384 Kbps
Channel(s) : 6 channels
Channel positions : Front: L C R, Side: L R, LFE
Sampling rate : 48.0 KHz
Bit depth : 16 bits
Compression mode : Lossy
Delay relative to video : 1s 820ms
Stream size : 224 MiB (16%)
Alignment : Split accross interleaves
Interleave, duration : 160 ms (3.84 video frames)
Interleave, preload duration : 160 ms


Sanktuarium 3D / Hidden 3D (2011) PL.BRRip.XviD.AC3-WiZARDS | Lektor PL

Sanktuarium 3D / Hidden 3D (2011) PL.BRRip.XviD.AC3-WiZARDS | Lektor PL Sanktuarium 3D / Hidden 3D (2011) PL.BRRip.XviD.AC3-WiZARDS | Lektor PL

Sanktuarium 3D / Hidden 3D (2011) PL.BRRip.XviD.AC3-WiZARDS | Lektor PL
Uwaga! Linki nie zakodowane tylko dla zarejestrowanych użytkowników!

Nie masz konta? Zarejestruj się za darmo!
----------------
Links are not encoded only for registered users only! Plese login or register!



Informacje

Jeżeli chcesz skomentować artykuł musisz być zarejestrowany na stronie.