EXSite.pl - Portal ze wszystkim Mamy tutaj wszystko

NIE MASZ JESZCZE KONTA? ZAREJESTRUJ SIĘ ZA DARMO!   
Przypomnij hasło X

Giganci ze stali / Real Steel (2011) PL.SUBBED.720p.BRRip.XviD.AC3-WiZARDS | Napisy PL

Dodał: ampatinis 14 Listopad 2012 18:34


Giganci ze stali / Real Steel (2011) PL.SUBBED.720p.BRRip.XviD.AC3-WiZARDS | Napisy PL

Giganci ze stali / Real Steel (2011) PL.SUBBED.720p.BRRip.XviD.AC3-WiZARDS | Napisy PL

Giganci ze stali / Real Steel (2011) PL.SUBBED.720p.BRRip.XviD.AC3-WiZARDS | Napisy PL

czas trwania: 2 godz. 7 min.
gatunek: Dramat, Akcja, Sci-Fi
premiera: 14 października 2011 (Polska) 6 września 2011 (świat)
produkcja: Indie, USA
reżyseria: Shawn Levy
scenariusz: John Gatins

Charlie Kenton jest weteranem walk wręcz. Jego kariera zako?czyła się z chwilą, gdy panowanie na ringu przejęły roboty. Teraz zajmuje się organizacją nielegalnych walk i renowacją robotów. Jest na dnie, gdy w jego życiu pojawia się Max, który twierdzi, że jest jego synem. Chłopak motywuje go do wytrenowania robota, który mógłby stanąć do walki o mistrzostwo. Stawki w tym brutalnym sporcie są wysokie, a Charlie i Max mają tylko jedną szansę, by wrócić na szczyt.


Format : AVI
Format/Info : Audio Video Interleave
Format profile : OpenDML
File size : 3.32 GiB
Duration : 2h 6mn
Overall bit rate : 3 748 Kbps
Writing application : VirtualDubMod 1.5.10.2 (build 2542/release)
Writing library : VirtualDubMod build 2542/release

Video
ID : 0
Format : MPEG-4 Visual
Format profile : Advanced Simple@L5
Format settings, BVOP : 1
Format settings, QPel : No
Format settings, GMC : No warppoints
Format settings, Matrix : Default (H.263)
Muxing mode : Packed bitstream
Codec ID : XVID
Codec ID/Hint : XviD
Duration : 2h 6mn
Bit rate : 3 292 Kbps
Width : 1 280 pixels
Height : 544 pixels
Display aspect ratio : 2.35:1
Frame rate : 23.976 fps
Color space : YUV
Chroma subsampling : 4:2:0
Bit depth : 8 bits
Scan type : Progressive
Compression mode : Lossy
Bits/(Pixel*Frame) : 0.197
Stream size : 2.92 GiB (88%)
Writing library : XviD 62

Audio
ID : 1
Format : AC-3
Format/Info : Audio Coding 3
Mode extension : CM (complete main)
Codec ID : 2000
Duration : 2h 6mn
Bit rate mode : Constant
Bit rate : 448 Kbps
Channel(s) : 6 channels
Channel positions : Front: L C R, Side: L R, LFE
Sampling rate : 48.0 KHz
Bit depth : 16 bits
Compression mode : Lossy
Stream size : 406 MiB (12%)
Alignment : Split accross interleaves
Interleave, duration : 64 ms (1.53 video frames)
Interleave, preload duration : 500 ms


Giganci ze stali / Real Steel (2011) PL.SUBBED.720p.BRRip.XviD.AC3-WiZARDS | Napisy PL

Giganci ze stali / Real Steel (2011) PL.SUBBED.720p.BRRip.XviD.AC3-WiZARDS | Napisy PL Giganci ze stali / Real Steel (2011) PL.SUBBED.720p.BRRip.XviD.AC3-WiZARDS | Napisy PL

Giganci ze stali / Real Steel (2011) PL.SUBBED.720p.BRRip.XviD.AC3-WiZARDS | Napisy PL
Uwaga! Linki nie zakodowane tylko dla zarejestrowanych użytkowników!

Nie masz konta? Zarejestruj się za darmo!
----------------
Links are not encoded only for registered users only! Plese login or register!



Użytkownik VIP

raetavUżytkownik

#1 | Dodany: 27 Grudzień 2013 15:38

^^^ DANE TECHNICZNE: ^^^

Real.Steel.2011.PLDUB.480p.BDRip.XviD.AC3-ELiTE.avi

Plik : 2.10 GB (1.98 GB), czas 2:06:50, rodzaj: AVI, 1 ścieżka(i) audio, jakość 83 %, VirtualDubMod 1.5.10.2 (build 2540/release), Ripped by ELiTE, ,
Video : 1.64 GB, 1858 Kbps, 23.976 fps, rozdz. 720*304 (2,35:1),  XVID = XVID Mpeg-4, Obsługiwane
Audio : 348 MB, 384 Kbps, 48000 Hz, 6 kanał(y), 0x2000 = AC-3 ACM Codec, CBR, , Obsługiwane



^^^ INFO UPLOADU: ^^^

10% danych naprawczych
3 party (2x 1GB + 322MB)



^^^ DOWNLOAD: ^^^

http://turbobit.net/vb0ol27fpqw8.html
http://turbobit.net/o1fxun2i88co.html
http://turbobit.net/hc2e49fsf6rp.html

Informacje

Jeżeli chcesz skomentować artykuł musisz być zarejestrowany na stronie.