EXSite.pl - Portal ze wszystkim Mamy tutaj wszystko

NIE MASZ JESZCZE KONTA? ZAREJESTRUJ SIĘ ZA DARMO!   
Przypomnij hasło X

Adrenalina 2: Pod napięciem / Crank: High Voltage (2009) PL.720p.BRRip.XviD-PolishET | Lektor PL

Dodał: ampatinis 21 Listopad 2012 17:54


Adrenalina 2: Pod napięciem / Crank: High Voltage (2009) PL.720p.BRRip.XviD-PolishET | Lektor PL

Adrenalina 2: Pod napięciem / Crank: High Voltage (2009) PL.720p.BRRip.XviD-PolishET | Lektor PL

Adrenalina 2: Pod napięciem / Crank: High Voltage (2009) PL.720p.BRRip.XviD-PolishET | Lektor PL

Reżyseria: Mark Neveldine, Brian Taylor
Scenariusz: Jodie Foster, Meg Ryan
Premiera: 24 lipca 2009 (Polska), 16 kwietnia 2009 (świat)
Produkcja: USA
Gatunek: Akcja
Czas trwania: 1 godz. 36 min.

Bohater kultowego filmu "Adrenalina", płatny zabójca Chev Chelios (Jason Statham), znów ma kłopoty. Wpada w ręce chi?skiego gangstera, który wycina mu serce i zastępuje je elektronicznym akumulatorem. Chcąc pozostać przy życiu i odszukać skradziony organ, Chev zamiast adrenaliny potrzebuje wysokiego napięcia, które utrzyma działanie wszczepionego mu urządzenia. "Adrenalina 2 : Pod napięciem", to genialne, dynamiczne, kipiące od adrenaliny kino akcji, połączone z solidna dawką humoru i zwie?czone niecodziennym zako?czeniem. "Adrenalina 2 : Pod napięciem", to film, który da ci kopa!


Format : AVI
Format/Info : Audio Video Interleave
Format profile : OpenDML
Format settings : rec
File size : 2.47 GiB
Duration : 1h 35mn
Overall bit rate : 3 689 Kbps
Writing application : AVI-Mux GUI 1.17.8.3, Feb 16 201019:42:50

Video
ID : 0
Format : MPEG-4 Visual
Format profile : Advanced Simple@L5
Format settings, BVOP : 2
Format settings, QPel : No
Format settings, GMC : No warppoints
Format settings, Matrix : Default (H.263)
Codec ID : XVID
Codec ID/Hint : XviD
Duration : 1h 35mn
Bit rate : 3 299 Kbps
Width : 1 280 pixels
Height : 694 pixels
Display aspect ratio : 16:9
Frame rate : 23.976 fps
Color space : YUV
Chroma subsampling : 4:2:0
Bit depth : 8 bits
Scan type : Progressive
Compression mode : Lossy
Bits/(Pixel*Frame) : 0.155
Stream size : 2.21 GiB (89%)
Writing library : XviD 1.2.1 (UTC 2008-12-04)

Audio
ID : 1
Format : AC-3
Format/Info : Audio Coding 3
Mode extension : CM (complete main)
Codec ID : 2000
Duration : 1h 35mn
Bit rate mode : Constant
Bit rate : 384 Kbps
Channel(s) : 6 channels
Channel positions : Front: L C R, Side: L R, LFE
Sampling rate : 48.0 KHz
Bit depth : 16 bits
Compression mode : Lossy
Stream size : 263 MiB (10%)
Alignment : Aligned on interleaves
Interleave, duration : 64 ms (1.53 video frames)
Interleave, preload duration : 192 ms
Title : Crank_High.Voltage.2009-PL.DD.5.1.384.kbps-HDBT-e94


Adrenalina 2: Pod napięciem / Crank: High Voltage (2009) PL.720p.BRRip.XviD-PolishET | Lektor PL

Adrenalina 2: Pod napięciem / Crank: High Voltage (2009) PL.720p.BRRip.XviD-PolishET | Lektor PL Adrenalina 2: Pod napięciem / Crank: High Voltage (2009) PL.720p.BRRip.XviD-PolishET | Lektor PL

Adrenalina 2: Pod napięciem / Crank: High Voltage (2009) PL.720p.BRRip.XviD-PolishET | Lektor PL
Uwaga! Linki nie zakodowane tylko dla zarejestrowanych użytkowników!

Nie masz konta? Zarejestruj się za darmo!
----------------
Links are not encoded only for registered users only! Plese login or register!



Użytkownik VIP

RaperSuper Uploader

#1 | Dodany: 27 Styczeń 2013 07:34

Crank.High.Voltage.2009.PL.720p.BRRip.XviD.AC3-WiZARDS

DATA RELEASU: 15.12.2012
LICZBA PLIKOW: 1 | 2.47 GB
PARAMETRY: Video - 1280x694, XviD ~3299 kbps; Audio - AC3 ~384 kbps
INFO DODATKOWE: Lektor PL

Uwaga! Linki nie zakodowane tylko dla zarejestrowanych użytkowników!

Nie masz konta? Zarejestruj się za darmo!
----------------
Links are not encoded only for registered users only! Plese login or register!
MOJE TEMATY
(O_o) Pozdrawiam (o_O)

Informacje

Jeżeli chcesz skomentować artykuł musisz być zarejestrowany na stronie.