EXSite.pl - Portal ze wszystkim Mamy tutaj wszystko

NIE MASZ JESZCZE KONTA? ZAREJESTRUJ SIĘ ZA DARMO!   
Przypomnij hasło X

Adrenalina / Crank (2006) PL.720p.BRRip.XviD-PolishET | Lektor PL

Dodał: ampatinis 21 Listopad 2012 17:57


Adrenalina / Crank (2006) PL.720p.BRRip.XviD-PolishET | Lektor PL

Adrenalina / Crank (2006) PL.720p.BRRip.XviD-PolishET | Lektor PL

Adrenalina / Crank (2006) PL.720p.BRRip.XviD-PolishET | Lektor PL

Reżyseria: Mark Neveldine, Brian Taylor
Scenariusz: Jodie Foster, Meg Ryan
Premiera: 31 sierpnia 2006 (świat) , [materiał wideo]Produkcja: USA
Gatunek: Akcja
Czas trwania: 1 godz. 27 min.

Pewnego ranka Chev Chelios (Jason Statham) budzi się w swoim domu z bardzo dziwnym uczuciem. Cały się poci i wszystko mu się rozmazuje. Koło telewizora znajduje płytę CD podpisaną "FUCK YOU". Po jej obejrzeniu wszystko staje się jasne. Chev został zatruty. Gdy się o tym dowiaduje zaczyna demolować swoje mieszkanie i z zaskoczeniem stwierdza, że zawroty głowy i inne objawy mu przeszły. Po kontakcie ze swoim lekarzem wie jak zwalczać działanie trucizny aż do momentu zażycia antidotum. Musi on robić wszystko aby jego organizm wytwarzał jak najwięcej adrenaliny, która spowalnia działanie środka. Po otrzymaniu tej informacji Chev wyrusza rozpocząć największą rozróbę w historii Hollywood.


Format : AVI
Format/Info : Audio Video Interleave
Format profile : OpenDML
Format settings : rec
File size : 2.30 GiB
Duration : 1h 27mn
Overall bit rate : 3 753 Kbps
Writing application : AVI-Mux GUI 1.17.8.3, Feb 16 201019:42:50

Video
ID : 0
Format : MPEG-4 Visual
Format profile : Advanced Simple@L5
Format settings, BVOP : 2
Format settings, QPel : No
Format settings, GMC : No warppoints
Format settings, Matrix : Default (H.263)
Codec ID : XVID
Codec ID/Hint : XviD
Duration : 1h 27mn
Bit rate : 3 299 Kbps
Width : 1 280 pixels
Height : 720 pixels
Display aspect ratio : 16:9
Frame rate : 23.976 fps
Color space : YUV
Chroma subsampling : 4:2:0
Bit depth : 8 bits
Scan type : Progressive
Compression mode : Lossy
Bits/(Pixel*Frame) : 0.149
Stream size : 2.02 GiB (88%)
Writing library : XviD 1.2.1 (UTC 2008-12-04)

Audio
ID : 1
Format : AC-3
Format/Info : Audio Coding 3
Mode extension : CM (complete main)
Codec ID : 2000
Duration : 1h 27mn
Bit rate mode : Constant
Bit rate : 448 Kbps
Channel(s) : 6 channels
Channel positions : Front: L C R, Side: L R, LFE
Sampling rate : 48.0 KHz
Bit depth : 16 bits
Compression mode : Lossy
Stream size : 281 MiB (12%)
Alignment : Aligned on interleaves
Interleave, duration : 64 ms (1.54 video frames)
Interleave, preload duration : 192 ms
Title : Crank.2006.PL.DD.5.1.448.kbps-HDBT


Adrenalina / Crank (2006) PL.720p.BRRip.XviD-PolishET | Lektor PL

Adrenalina / Crank (2006) PL.720p.BRRip.XviD-PolishET | Lektor PL Adrenalina / Crank (2006) PL.720p.BRRip.XviD-PolishET | Lektor PL

Adrenalina / Crank (2006) PL.720p.BRRip.XviD-PolishET | Lektor PL
Uwaga! Linki nie zakodowane tylko dla zarejestrowanych użytkowników!

Nie masz konta? Zarejestruj się za darmo!
----------------
Links are not encoded only for registered users only! Plese login or register!



Użytkownik VIP

MaRCiNJaCKUżytkownik

#1 | Dodany: 21 Listopad 2012 19:45

wink
Użytkownik VIP

RaperSuper Uploader

#2 | Dodany: 27 Styczeń 2013 07:33

Crank.2006.PL.720p.BRRip.XviD.AC3-WiZARDS

DATA RELEASU: 15.12.2012
LICZBA PLIKOW: 1 | 2.30 GB
PARAMETRY: Video - 1280x720, XviD ~3299 kbps; Audio - AC3 ~448 kbps
INFO DODATKOWE: Lektor PL

Uwaga! Linki nie zakodowane tylko dla zarejestrowanych użytkowników!

Nie masz konta? Zarejestruj się za darmo!
----------------
Links are not encoded only for registered users only! Plese login or register!
MOJE TEMATY
(O_o) Pozdrawiam (o_O)

Informacje

Jeżeli chcesz skomentować artykuł musisz być zarejestrowany na stronie.