EXSite.pl - Portal ze wszystkim Mamy tutaj wszystko

NIE MASZ JESZCZE KONTA? ZAREJESTRUJ SIĘ ZA DARMO!   
Przypomnij hasło X

Mości Książę / Your Highness (2011) PL.720p.BDRip.XviD-PolishET | Lektor PL

Dodał: ampatinis 21 Listopad 2012 18:06


Mości Książę / Your Highness (2011) PL.720p.BDRip.XviD-PolishET | Lektor PL

Mości Książę / Your Highness (2011) PL.720p.BDRip.XviD-PolishET | Lektor PL

Mości Książę / Your Highness (2011) PL.720p.BDRip.XviD-PolishET | Lektor PL

iNFO:
produkcja: USA
gatunek: Fantasy, Komedia, Przygodowy
reżyseria: David Gordon Green
scenariusz: Danny McBride, Ben Best
premiera: 8 kwietnia 2011 (świat)
czas trwania: 102 min.

OPiS:
Leniwy i arogancki książę oraz jego bardziej bohaterski brat muszą uratować rodzinę i królestwo, po tym, jak zły czarownik rzuca zaklęcie na króla, a zarazem ich ojca, oraz porywa Belladonę, narzeczoną starszego z braci. Do wyprawy przez siedem gór i siedem rzek, gdzie spotkają czarownice i smoki, razem z nim wybiera się piękna i wojownicza księżniczka.


General
Format : AVI
Format/Info : Audio Video Interleave
Format profile : OpenDML
File size : 3.14 GiB
Duration : 1h 42mn
Overall bit rate : 4 388 Kbps
Writing application : AVI-Mux GUI 1.17.8.3, Feb 16 201019:42:50

Video
ID : 0
Format : MPEG-4 Visual
Format profile : Advanced Simple@L5
Format settings, BVOP : Yes
Format settings, QPel : No
Format settings, GMC : No warppoints
Format settings, Matrix : Custom
Muxing mode : Packed bitstream
Codec ID : XVID
Codec ID/Hint : XviD
Duration : 1h 42mn
Bit rate : 3 999 Kbps
Width : 1 280 pixels
Height : 536 pixels
Display aspect ratio : 2.35:1
Frame rate : 23.976 fps
Color space : YUV
Chroma subsampling : 4:2:0
Bit depth : 8 bits
Scan type : Progressive
Compression mode : Lossy
Bits/(Pixel*Frame) : 0.243
Stream size : 2.86 GiB (91%)
Writing library : XviD 64

Audio
ID : 1
Format : AC-3
Format/Info : Audio Coding 3
Mode extension : CM (complete main)
Codec ID : 2000
Duration : 1h 42mn
Bit rate mode : Constant
Bit rate : 384 Kbps
Channel(s) : 6 channels
Channel positions : Front: L C R, Side: L R, LFE
Sampling rate : 48.0 KHz
Bit depth : 16 bits
Compression mode : Lossy
Stream size : 281 MiB (9%)
Alignment : Aligned on interleaves
Interleave, duration : 64 ms (1.54 video frames)
Interleave, preload duration : 192 ms
Title : Your.Highness.2011.PL.DD.5.1.HDBT


Mości Książę / Your Highness (2011) PL.720p.BDRip.XviD-PolishET | Lektor PL

Mości Książę / Your Highness (2011) PL.720p.BDRip.XviD-PolishET | Lektor PL

Mości Książę / Your Highness (2011) PL.720p.BDRip.XviD-PolishET | Lektor PL
Uwaga! Linki nie zakodowane tylko dla zarejestrowanych użytkowników!

Nie masz konta? Zarejestruj się za darmo!
----------------
Links are not encoded only for registered users only! Plese login or register!



Informacje

Jeżeli chcesz skomentować artykuł musisz być zarejestrowany na stronie.