EXSite.pl - Portal ze wszystkim Mamy tutaj wszystko

NIE MASZ JESZCZE KONTA? ZAREJESTRUJ SIĘ ZA DARMO!   
Przypomnij hasło X

Facet Do Dziecka / The Sitter (2011) UNRATED.SUB.PL.720p.BRRip.XviD-PolishET | Napisy PL

Dodał: ampatinis 21 Listopad 2012 18:24


Facet Do Dziecka / The Sitter (2011) UNRATED.SUB.PL.720p.BRRip.XviD-PolishET | Napisy PL

Facet Do Dziecka / The Sitter (2011) UNRATED.SUB.PL.720p.BRRip.XviD-PolishET | Napisy PL

Facet Do Dziecka / The Sitter (2011) UNRATED.SUB.PL.720p.BRRip.XviD-PolishET | Napisy PL

Dystrybucja: USA
Gatunek: Komedia
Data premiery (Polska): 20 kwietnia 2012
Reżyseria: David Gordon Green
Scenariusz: Brian Gatewood, Alessandro Tanaka
Zdjęcia: Tim Orr
Muzyka: Jeff McIlwain
Czas trwania: 1 godz. 21 min.

Komedia w reżyserii Davida Gordona Greena ("Boski chillout"). Jonah Hill ("Supersamiec") w roli zawieszonego w obowiązkach studenta, który zmuszony zostaje podjąć pracę... opiekuna do dzieci, oferując swym "podopiecznym" rozrywki, których długo nie zapomną...


Format : AVI
Format/Info : Audio Video Interleave
Format profile : OpenDML
File size : 2.59 GiB
Duration : 1h 27mn
Overall bit rate : 4 255 Kbps
Writing application : VirtualDubMod 1.5.10.2 (build 2542/release)
Writing library : VirtualDubMod build 2542/release

Video
ID : 0
Format : MPEG-4 Visual
Format profile : Advanced Simple@L5
Format settings, BVOP : 1
Format settings, QPel : No
Format settings, GMC : No warppoints
Format settings, Matrix : Default (H.263)
Codec ID : XVID
Codec ID/Hint : XviD
Duration : 1h 27mn
Bit rate : 3 604 Kbps
Width : 1 280 pixels
Height : 688 pixels
Display aspect ratio : 1.860
Frame rate : 23.976 fps
Color space : YUV
Chroma subsampling : 4:2:0
Bit depth : 8 bits
Scan type : Progressive
Compression mode : Lossy
Bits/(Pixel*Frame) : 0.171
Stream size : 2.19 GiB (85%)
Writing library : XviD 1.2.1 (UTC 2008-12-04)

Audio
ID : 1
Format : AC-3
Format/Info : Audio Coding 3
Mode extension : CM (complete main)
Codec ID : 2000
Duration : 1h 27mn
Bit rate mode : Constant
Bit rate : 640 Kbps
Channel(s) : 6 channels
Channel positions : Front: L C R, Side: L R, LFE
Sampling rate : 48.0 KHz
Bit depth : 16 bits
Compression mode : Lossy
Stream size : 399 MiB (15%)
Alignment : Split accross interleaves
Interleave, duration : 42 ms (1.00 video frame)
Interleave, preload duration : 500 ms


Facet Do Dziecka / The Sitter (2011) UNRATED.SUB.PL.720p.BRRip.XviD-PolishET | Napisy PL

Facet Do Dziecka / The Sitter (2011) UNRATED.SUB.PL.720p.BRRip.XviD-PolishET | Napisy PL

Facet Do Dziecka / The Sitter (2011) UNRATED.SUB.PL.720p.BRRip.XviD-PolishET | Napisy PL
Uwaga! Linki nie zakodowane tylko dla zarejestrowanych użytkowników!

Nie masz konta? Zarejestruj się za darmo!
----------------
Links are not encoded only for registered users only! Plese login or register!



Informacje

Jeżeli chcesz skomentować artykuł musisz być zarejestrowany na stronie.