EXSite.pl - Portal ze wszystkim Mamy tutaj wszystko

NIE MASZ JESZCZE KONTA? ZAREJESTRUJ SIĘ ZA DARMO!   
Przypomnij hasło X

Sprawa zamknięta / The Son of No One (2011) PL.720p.BRRip.XviD-PolishET | Lektor PL

Dodał: ampatinis 21 Listopad 2012 18:26


Sprawa zamknięta / The Son of No One (2011) PL.720p.BRRip.XviD-PolishET | Lektor PL

Sprawa zamknięta / The Son of No One (2011) PL.720p.BRRip.XviD-PolishET | Lektor PL

Sprawa zamknięta / The Son of No One (2011) PL.720p.BRRip.XviD-PolishET | Lektor PL

Reżyseria: Dito Montiel
Scenariusz: Jodie Foster, Meg Ryan
Premiera: 9 lipca 2011 (świat) , [materiał wideo]Produkcja: USA
Gatunek: Kryminał, Thriller
Czas trwania: 1 godz. 30 min.

Młody policjant idzie w ślady ojca i zostaje skierowany do pracy w robotniczej dzielnicy Queens, w której niegdyś się wychował. Mężczyzna ciężko pracuje, żeby zapewnić byt swojej rodzinie. Jednak powrót do miejsca, gdzie się wychował, grozi odkryciem starych tajemnic.


ofile : Advanced Simple@L5
Format settings, BVOP : 2
Format settings, QPel : No
Format settings, GMC : No warppoints
Format settings, Matrix : Default (H.263)
Codec ID : XVID
Codec ID/Hint : XviD
Duration : 1h 33mn
Bit rate : 3 498 Kbps
Width : 1 280 pixels
Height : 544 pixels
Display aspect ratio : 2.35:1
Frame rate : 23.976 fps
Color space : YUV
Chroma subsampling : 4:2:0
Bit depth : 8 bits
Scan type : Progressive
Compression mode : Lossy
Bits/(Pixel*Frame) : 0.210
Stream size : 2.29 GiB (89%)
Writing library : XviD 1.2.1 (UTC 2008-12-04)

Audio
ID : 1
Format : AC-3
Format/Info : Audio Coding 3
Mode extension : CM (complete main)
Codec ID : 2000
Duration : 1h 33mn
Bit rate mode : Constant
Bit rate : 448 Kbps
Channel(s) : 6 channels
Channel positions : Front: L C R, Side: L R, LFE
Sampling rate : 48.0 KHz
Bit depth : 16 bits
Compression mode : Lossy
Stream size : 300 MiB (11%)
Alignment : Aligned on interleaves
Interleave, duration : 64 ms (1.53 video frames)
Interleave, preload duration : 192 ms
Title : 123


Sprawa zamknięta / The Son of No One (2011) PL.720p.BRRip.XviD-PolishET | Lektor PL

Sprawa zamknięta / The Son of No One (2011) PL.720p.BRRip.XviD-PolishET | Lektor PL Sprawa zamknięta / The Son of No One (2011) PL.720p.BRRip.XviD-PolishET | Lektor PL

Sprawa zamknięta / The Son of No One (2011) PL.720p.BRRip.XviD-PolishET | Lektor PL
Uwaga! Linki nie zakodowane tylko dla zarejestrowanych użytkowników!

Nie masz konta? Zarejestruj się za darmo!
----------------
Links are not encoded only for registered users only! Plese login or register!



Użytkownik VIP

FirstKissUżytkownik

#1 | Dodany: 21 Listopad 2012 19:01

Sprawa Zamknięta / The Son of No One (2011) PL.DVDRip.XviD / Lektor PL

Dane techniczne:
Format            : AVI at 1 088 Kbps
Length            : 700 MiB for 1h 29mn 56s 200ms

Video #0          : MPEG-4 Visual at 950 Kbps
Aspect            : 640 x 272 (2.353) at 25.000 fps

Audio #0          : MPEG Audio at 128 Kbps
Infos             : 2 channels, 48.0 KHz


Download:

Uwaga! Linki nie zakodowane tylko dla zarejestrowanych użytkowników!

Nie masz konta? Zarejestruj się za darmo!
----------------
Links are not encoded only for registered users only! Plese login or register!

Informacje

Jeżeli chcesz skomentować artykuł musisz być zarejestrowany na stronie.