EXSite.pl - Portal ze wszystkim Mamy tutaj wszystko

NIE MASZ JESZCZE KONTA? ZAREJESTRUJ SIĘ ZA DARMO!   
Przypomnij hasło X

Sunset Limited / The Sunset Limited (2011) PL.720p.BDRip.XviD-PolishET | Lektor PL

Dodał: ampatinis 21 Listopad 2012 18:28


Sunset Limited / The Sunset Limited (2011) PL.720p.BDRip.XviD-PolishET | Lektor PL

Sunset Limited / The Sunset Limited (2011) PL.720p.BDRip.XviD-PolishET | Lektor PL

Sunset Limited / The Sunset Limited (2011) PL.720p.BDRip.XviD-PolishET | Lektor PL

Reżyseria: Tommy Lee Jones
Premiera: 12 lutego 2011 (świat)
Gatunek: Dramat, Psychologiczny
Czas trwania: 1 godz. 31 min.

Losy skromnego, uczynnego i pobożnego mężczyzny po przejściach (Jackson) splatają się na jednej ze stacji metra z historią wykształconego, zasobnego i zgorzkniałego erudyty (Jones), w momencie w którym ten drugi próbuje popełnić samobójstwo. Pierwszemu z nich udaje się udaremnić zamiar drugiego i zaprosić go do siebie do domu, gdzie przez najbliższe godziny będzie starał się odwieść go od ponownej próby realizacji jego planu. Rozpoczyna się zawzięta dyskusja na temat najważniejszych dla nich kwestii - życia, prawdy i Boga.


Format : AVI
Format/Info : Audio Video Interleave
Format profile : OpenDML
Format settings : rec
File size : 2.70 GiB
Duration : 1h 30mn
Overall bit rate : 4 256 Kbps
Writing application : AVI-Mux GUI 1.17.8.3, Feb 16 201019:42:50

Video
ID : 0
Format : MPEG-4 Visual
Format profile : Advanced Simple@L5
Format settings, BVOP : 1
Format settings, QPel : No
Format settings, GMC : No warppoints
Format settings, Matrix : Default (H.263)
Codec ID : XVID
Codec ID/Hint : XviD
Duration : 1h 30mn
Bit rate : 3 610 Kbps
Width : 1 280 pixels
Height : 720 pixels
Display aspect ratio : 16:9
Frame rate : 23.976 fps
Color space : YUV
Chroma subsampling : 4:2:0
Bit depth : 8 bits
Scan type : Progressive
Compression mode : Lossy
Bits/(Pixel*Frame) : 0.163
Stream size : 2.29 GiB (85%)
Writing library : XviD 1.2.1 (UTC 2008-12-04)

Audio
ID : 1
Format : AC-3
Format/Info : Audio Coding 3
Mode extension : CM (complete main)
Codec ID : 2000
Duration : 1h 30mn
Bit rate mode : Constant
Bit rate : 640 Kbps
Channel(s) : 6 channels
Channel positions : Front: L C R, Side: L R, LFE
Sampling rate : 48.0 KHz
Bit depth : 16 bits
Compression mode : Lossy
Stream size : 416 MiB (15%)
Alignment : Aligned on interleaves
Interleave, duration : 64 ms (1.54 video frames)
Interleave, preload duration : 192 ms
Title : Lektor_PL



Sunset Limited / The Sunset Limited (2011) PL.720p.BDRip.XviD-PolishET | Lektor PL
Uwaga! Linki nie zakodowane tylko dla zarejestrowanych użytkowników!

Nie masz konta? Zarejestruj się za darmo!
----------------
Links are not encoded only for registered users only! Plese login or register!



Użytkownik VIP

OzWVIP Uploader

#1 | Dodany: 21 Listopad 2012 18:30

wink
# OzW !!!!!!!.
Użytkownik VIP

gacek017Użytkownik

#2 | Dodany: 21 Listopad 2012 18:43

thx

Informacje

Jeżeli chcesz skomentować artykuł musisz być zarejestrowany na stronie.