EXSite.pl - Portal ze wszystkim Mamy tutaj wszystko

NIE MASZ JESZCZE KONTA? ZAREJESTRUJ SIĘ ZA DARMO!   
Przypomnij hasło X

Dzie? Niepodległości / Independence Day (1996) PL.AC3.BRRip.Xvid-RedCoders | Lektor PL

Dodał: ampatinis 25 Listopad 2012 17:25


Dzie? Niepodległości / Independence Day (1996) PL.AC3.BRRip.Xvid-RedCoders | Lektor PL

Dzie? Niepodległości / Independence Day (1996) PL.AC3.BRRip.Xvid-RedCoders | Lektor PL

Dzie? Niepodległości / Independence Day (1996) PL.AC3.BRRip.Xvid-RedCoders | Lektor PL

Produkcja: USA
Gatunek: Akcja, Sci-Fi
Data premiery: 4 października 1996 (Polska) 25 czerwca 1996 (świat)
Reżyseria: Roland Emmerich
Scenariusz: Roland Emmerich, Dean Devlin

Jeden z największych przebojów filmowych ostatnich lat. Cały rodzaj ludzki jest zagrożony zagładą, gdy monstrualne statki kosmiczne Obcych dosłownie zmiatają z powierzchni Ziemi największe, najgęściej zaludnione miasta na całym globie. Panika sięga zenitu Przyszłość naszej planety zależy jedynie od brawurowej odwagi i poświęcenia dwójki gotowych na wszystko desperatów. W konfrontacji z ostatecznym zagrożeniem nikną światowe podziały i wrogość poszczególnych narodów. Wszystkie siły ducha i umysłu muszą być zmobilizowane i stanowić jedność w walce z kosmicznym najeźdźcą. Film jest dziełem twórców "Gwiezdnych Wrót" i "Uniwersalnego żołnierza" - Rolanda Emmericha i Deana Devlina, a grają w nim takie sławy, jak Jeff Goldblum w roli genialnego naukowca czy Bill Pullman jako Prezydent USA.


Video
ID : 0
Format : MPEG-4 Visual
Format profile : Advanced Simple@L5
Format settings, BVOP : 1
Format settings, QPel : No
Format settings, GMC : No warppoints
Format settings, Matrix : Default (H.263)
Muxing mode : Packed bitstream
Codec ID : XVID
Codec ID/Hint : XviD
Duration : 2h 24mn
Bit rate : 2 699 Kbps
Width : 1 280 pixels
Height : 544 pixels
Display aspect ratio : 16:9
Frame rate : 23.976 fps
Color space : YUV
Chroma subsampling : 4:2:0
Bit depth : 8 bits
Scan type : Progressive
Compression mode : Lossy
Bits/(Pixel*Frame) : 0.162
Stream size : 2.73 GiB (85%)
Writing library : XviD 1.3.0.dev55

Audio
ID : 1
Format : AC-3
Format/Info : Audio Coding 3
Mode extension : CM (complete main)
Codec ID : 2000
Duration : 2h 24mn
Bit rate mode : Constant
Bit rate : 448 Kbps
Channel(s) : 6 channels
Channel positions : Front: L C R, Side: L R, LFE
Sampling rate : 48.0 KHz
Bit depth : 16 bits
Compression mode : Lossy
Stream size : 464 MiB (14%)
Alignment : Split accross interleaves
Interleave, duration : 42 ms (1.00 video frame)
Interleave, preload duration : 500 ms


Dzie? Niepodległości / Independence Day (1996) PL.AC3.BRRip.Xvid-RedCoders | Lektor PL

Dzie? Niepodległości / Independence Day (1996) PL.AC3.BRRip.Xvid-RedCoders | Lektor PL

Dzie? Niepodległości / Independence Day (1996) PL.AC3.BRRip.Xvid-RedCoders | Lektor PL
Uwaga! Linki nie zakodowane tylko dla zarejestrowanych użytkowników!

Nie masz konta? Zarejestruj się za darmo!
----------------
Links are not encoded only for registered users only! Plese login or register!



Informacje

Jeżeli chcesz skomentować artykuł musisz być zarejestrowany na stronie.