EXSite.pl - Portal ze wszystkim Mamy tutaj wszystko

NIE MASZ JESZCZE KONTA? ZAREJESTRUJ SIĘ ZA DARMO!   
Przypomnij hasło X

Iniemamocni / The Incredibles (2004) PLDUB.720p.BDRip.XviD.AC3-ELiTE | Dubbing PL

Dodał: ampatinis 23 Grudzień 2012 11:04


Iniemamocni / The Incredibles (2004) PLDUB.720p.BDRip.XviD.AC3-ELiTE | Dubbing PL

Iniemamocni / The Incredibles (2004) PLDUB.720p.BDRip.XviD.AC3-ELiTE | Dubbing PL

Iniemamocni / The Incredibles (2004) PLDUB.720p.BDRip.XviD.AC3-ELiTE | Dubbing PL

Reżyseria: Brad Bird
Scenariusz: Brad Bird
Premiera: 19 listopada 2004 (Polska), 27 października 2004 (świat)
Produkcja: USA
Gatunek: Animacja, Familijny
Czas trwania: 115 min

Pan Parr, kiedyś znany powszechnie jako 'Iniemamocny', oraz jego żona Helen, prowadzą życie emerytowanej pary superbohaterów. Zostali zmuszeni do zaniechania swej działalności piętnaście lat wcześniej i dziś spokojnie mieszkają na przedmieściu. Ich dzieci nie wiedzą wszystkiego o dawnych zajęciach rodziców. Niespodziewanie jednak przed Iniemamocnym pojawia się szansa, by wrócić do branży i przeprowadzić bardzo niebezpieczną, tajną akcję na dalekiej wyspie. Parr skorzysta z niej z ochotą, ale długa przerwa w aktywności sprawi, że nie będzie to łatwe. Przy okazji wciągnie w wir zdarze? całą rodzinę.


General
Complete name : The.Incredibles.2004.PLDUB.720p.BDRip.XviD.AC3-ELiTE.avi
Format : AVI
Format/Info : Audio Video Interleave
Format profile : OpenDML
File size : 3.16 GiB
Duration : 1h 55mn
Overall bit rate : 3 913 Kbps
Writing application : VirtualDubMod 1.5.10.2 (build 2540/release)
Writing library : VirtualDubMod build 2540/release

Video
ID : 0
Format : MPEG-4 Visual
Format profile : Advanced Simple@L5
Format settings, BVOP : Yes
Format settings, QPel : No
Format settings, GMC : No warppoints
Format settings, Matrix : Custom
Codec ID : XVID
Codec ID/Hint : XviD
Duration : 1h 55mn
Bit rate : 3 519 Kbps
Width : 1 280 pixels
Height : 536 pixels
Display aspect ratio : 2.35:1
Frame rate : 23.976 fps
Color space : YUV
Chroma subsampling : 4:2:0
Bit depth : 8 bits
Scan type : Progressive
Compression mode : Lossy
Bits/(Pixel*Frame) : 0.214
Stream size : 2.84 GiB (90%)
Writing library : XviD 1.2.1 (UTC 2008-12-04)

Audio
ID : 1
Format : AC-3
Format/Info : Audio Coding 3
Mode extension : CM (complete main)
Codec ID : 2000
Duration : 1h 55mn
Bit rate mode : Constant
Bit rate : 384 Kbps
Channel(s) : 6 channels
Channel positions : Front: L C R, Side: L R, LFE
Sampling rate : 48.0 KHz
Bit depth : 16 bits
Compression mode : Lossy
Stream size : 317 MiB (10%)
Alignment : Split accross interleaves
Interleave, duration : 42 ms (1.00 video frame)
Interleave, preload duration : 500 ms


Iniemamocni / The Incredibles (2004) PLDUB.720p.BDRip.XviD.AC3-ELiTE | Dubbing PL

Iniemamocni / The Incredibles (2004) PLDUB.720p.BDRip.XviD.AC3-ELiTE | Dubbing PL Iniemamocni / The Incredibles (2004) PLDUB.720p.BDRip.XviD.AC3-ELiTE | Dubbing PL


Iniemamocni / The Incredibles (2004) PLDUB.720p.BDRip.XviD.AC3-ELiTE | Dubbing PL
Uwaga! Linki nie zakodowane tylko dla zarejestrowanych użytkowników!

Nie masz konta? Zarejestruj się za darmo!
----------------
Links are not encoded only for registered users only! Plese login or register!



Użytkownik VIP

xpajonkxTrial Uploader

#1 | Dodany: 1 Grudzień 2016 10:33

Iniemamocni / The Incredibles (2004)
PLDUB.DVDRip.XviD-NN / Dubbing PL Profesjonalny


DANE TECHNICZNE:

Format            : AVI at 918 Kbps
Length            : 690 MiB for 1h 45mn 2s 80ms

Video #0          : MPEG-4 Visual at 781 Kbps
Aspect            : 688 x 288 (2.389) at 25.000 fps

Audio #0          : MPEG Audio at 128 Kbps
Infos             : 2 channels, 48.0 KHz


DOWNLOAD:

Uwaga! Linki nie zakodowane tylko dla zarejestrowanych użytkowników!

Nie masz konta? Zarejestruj się za darmo!
----------------
Links are not encoded only for registered users only! Plese login or register!

Informacje

Jeżeli chcesz skomentować artykuł musisz być zarejestrowany na stronie.