EXSite.pl - Portal ze wszystkim Mamy tutaj wszystko

NIE MASZ JESZCZE KONTA? ZAREJESTRUJ SIĘ ZA DARMO!   
Przypomnij hasło X

Droga do szczęścia / Revolutionary Road (2008) PL.720p.BRRip.XviD.AC3-DustnWind | Lektor PL

Dodał: ampatinis 23 Grudzień 2012 17:21


Droga do szczęścia / Revolutionary Road (2008) PL.720p.BRRip.XviD.AC3-DustnWind | Lektor PL

Droga do szczęścia / Revolutionary Road (2008) PL.720p.BRRip.XviD.AC3-DustnWind | Lektor PL

Droga do szczęścia / Revolutionary Road (2008) PL.720p.BRRip.XviD.AC3-DustnWind | Lektor PL

Reżyseria: Sam Mendes
Scenariusz: Justin Haythe
Premiera: 30 stycznia 2009 (Polska), 15 grudnia 2008 (świat)
Produkcja: USA, Wielka Brytania
Gatunek: Melodramat
Czas trwania: 119 min

Film zrealizowany na podstawie książki Richarda Yatesa. April i Frank Wheeler to młode małże?stwo mieszkające z dwójką dzieci na przedmieściach Connecticut w połowie lat 50-tych. Oboje skutecznie maskują frustrację spowodowaną niemożnością spełnienia się zarówno w związku jak i karierze zawodowej. Frank ugrzązł w dobrze płatnej, ale nudnej pracy biurowej. Gospodyni domowa, April, ciągle opłakuje stojącą kiedyś przed nią szansę na zrobienie kariery aktorskiej. Nie mogąc znieść przeciętności, jaka ich otacza, decydują się wyjechać do Francji, gdzie będą w stanie rozwijać swoją wrażliwość artystyczną wolni od konsumpcyjnych wymaga? kapitalistycznej Ameryki. Kiedy jednak ich związek zamienia się w niesko?czone pasmo sprzeczek, zazdrości i wzajemnych oskarże?, ich podróż oraz marzenia o samospełnieniu stają w obliczu zagrożenia.




General
Complete name : Revolutionary.Road.2008.PL.720p.BRRip.XviD.AC3-DustnWind.avi
Format : AVI
Format/Info : Audio Video Interleave
Format profile : OpenDML
File size : 3.26 GiB
Duration : 1h 59mn
Overall bit rate : 3 916 Kbps
Writing application : VirtualDubMod 1.5.10.2 (build 2540/release)
Writing library : VirtualDubMod build 2540/release

Video
ID : 0
Format : MPEG-4 Visual
Format profile : Advanced Simple@L5
Format settings, BVOP : Yes
Format settings, QPel : No
Format settings, GMC : No warppoints
Format settings, Matrix : Default (MPEG)
Codec ID : XVID
Codec ID/Hint : XviD
Duration : 1h 59mn
Bit rate : 3 266 Kbps
Width : 1 280 pixels
Height : 544 pixels
Display aspect ratio : 2.35:1
Frame rate : 23.976 fps
Color space : YUV
Chroma subsampling : 4:2:0
Bit depth : 8 bits
Scan type : Progressive
Compression mode : Lossy
Bits/(Pixel*Frame) : 0.196
Stream size : 2.72 GiB (83%)
Writing library : XviD 1.2.1 (UTC 2008-12-04)

Audio
ID : 1
Format : AC-3
Format/Info : Audio Coding 3
Codec ID : 2000
Duration : 1h 59mn
Bit rate mode : Constant
Bit rate : 640 Kbps
Channel(s) : 6 channels
Sampling rate : 48.0 KHz
Compression mode : Lossy
Stream size : 546 MiB (16%)
Alignment : Aligned on interleaves
Interleave, duration : 42 ms (1.00 video frame)
Interleave, preload duration : 500 ms


Droga do szczęścia / Revolutionary Road (2008) PL.720p.BRRip.XviD.AC3-DustnWind | Lektor PL

Droga do szczęścia / Revolutionary Road (2008) PL.720p.BRRip.XviD.AC3-DustnWind | Lektor PL Droga do szczęścia / Revolutionary Road (2008) PL.720p.BRRip.XviD.AC3-DustnWind | Lektor PL


Droga do szczęścia / Revolutionary Road (2008) PL.720p.BRRip.XviD.AC3-DustnWind | Lektor PL
Uwaga! Linki nie zakodowane tylko dla zarejestrowanych użytkowników!

Nie masz konta? Zarejestruj się za darmo!
----------------
Links are not encoded only for registered users only! Plese login or register!



Użytkownik VIP

kartaczVIP Uploader

#1 | Dodany: 2 Sierpień 2013 13:04

Droga do szczęścia / Revolutionary Road (2008) PL.DVDRip.XviD-NoName


RIP INFO:
Revolutionary.Road.2008.PL.DVDRip.XviD-NoName

Video............: 624 x 256, XviD, 717 kbps
Audio............: MP3, 131 kbps, 2 kanały
Czas trwania.....: 114 min.
Język............: Polski Lektor
Rozmiar..........: 702 MB
Rodzaj kompresji.: Brak
Zawartość uploadu: plik .avi
Dane naprawcze...: Brak


5fantastic

Uwaga! Linki nie zakodowane tylko dla zarejestrowanych użytkowników!

Nie masz konta? Zarejestruj się za darmo!
----------------
Links are not encoded only for registered users only! Plese login or register!


~~1 Plik - Pobierasz i Oglądasz~~

Uwaga! Linki nie zakodowane tylko dla zarejestrowanych użytkowników!

Nie masz konta? Zarejestruj się za darmo!
----------------
Links are not encoded only for registered users only! Plese login or register!

Informacje

Jeżeli chcesz skomentować artykuł musisz być zarejestrowany na stronie.