EXSite.pl - Portal ze wszystkim Mamy tutaj wszystko

NIE MASZ JESZCZE KONTA? ZAREJESTRUJ SIĘ ZA DARMO!   
Przypomnij hasło X

Robin Hood: Książę złodziei / Robin Hood: Prince of Thieves (1991) PL.720p.BRRip.XviD.AC3-DustnWind | Lektor PL

Dodał: ampatinis 23 Grudzień 2012 17:23


Robin Hood: Książę złodziei / Robin Hood: Prince of Thieves (1991) PL.720p.BRRip.XviD.AC3-DustnWind | Lektor PL

Robin Hood: Książę złodziei / Robin Hood: Prince of Thieves (1991) PL.720p.BRRip.XviD.AC3-DustnWind | Lektor PL

Robin Hood: Książę złodziei / Robin Hood: Prince of Thieves (1991) PL.720p.BRRip.XviD.AC3-DustnWind | Lektor PL

Reżyseria: Kevin Reynolds
Scenariusz: Pen Densham, John Watson
Premiera: 13 września 1991 (Polska), marzec 1991 (świat)
Produkcja: USA
Gatunek: Przygodowy
Czas trwania: 155 min

Podczas wyprawy krzyżowej z arabskiego więzienia ucieka Robin, ratując życie Azeemowi. Ten, w ramach podzięki, płynie ze swym dobroczy?cą do jego ojczyzny - Anglii. Jednak Robin przeżyje szok, gdy zobaczy swój rodzinny dom.


General
Complete name : Robin.Hood.Prince.Of.Thieves.1991.PL.720p.BRRip.XviD.AC3-DustnWind.avi
Format : AVI
Format/Info : Audio Video Interleave
Format profile : OpenDML
File size : 3.76 GiB
Duration : 2h 35mn
Overall bit rate : 3 475 Kbps
Writing application : VirtualDubMod 1.5.10.2 (build 2540/release)
Writing library : VirtualDubMod build 2540/release

Video
ID : 0
Format : MPEG-4 Visual
Format profile : Advanced Simple@L5
Format settings, BVOP : Yes
Format settings, QPel : No
Format settings, GMC : No warppoints
Format settings, Matrix : Default (MPEG)
Codec ID : XVID
Codec ID/Hint : XviD
Duration : 2h 35mn
Bit rate : 3 241 Kbps
Width : 1 280 pixels
Height : 720 pixels
Display aspect ratio : 16:9
Frame rate : 23.976 fps
Color space : YUV
Chroma subsampling : 4:2:0
Bit depth : 8 bits
Scan type : Progressive
Compression mode : Lossy
Bits/(Pixel*Frame) : 0.147
Stream size : 3.51 GiB (93%)
Writing library : XviD 1.2.1 (UTC 2008-12-04)

Audio
ID : 1
Format : AC-3
Format/Info : Audio Coding 3
Mode extension : CM (complete main)
Codec ID : 2000
Duration : 2h 35mn
Bit rate mode : Constant
Bit rate : 224 Kbps
Channel(s) : 2 channels
Channel positions : Front: L R
Sampling rate : 48.0 KHz
Bit depth : 16 bits
Compression mode : Lossy
Stream size : 248 MiB (6%)
Alignment : Split accross interleaves
Interleave, duration : 42 ms (1.00 video frame)
Interleave, preload duration : 500 ms


Robin Hood: Książę złodziei / Robin Hood: Prince of Thieves (1991) PL.720p.BRRip.XviD.AC3-DustnWind | Lektor PL

Robin Hood: Książę złodziei / Robin Hood: Prince of Thieves (1991) PL.720p.BRRip.XviD.AC3-DustnWind | Lektor PL Robin Hood: Książę złodziei / Robin Hood: Prince of Thieves (1991) PL.720p.BRRip.XviD.AC3-DustnWind | Lektor PL

Robin Hood: Książę złodziei / Robin Hood: Prince of Thieves (1991) PL.720p.BRRip.XviD.AC3-DustnWind | Lektor PL
Uwaga! Linki nie zakodowane tylko dla zarejestrowanych użytkowników!

Nie masz konta? Zarejestruj się za darmo!
----------------
Links are not encoded only for registered users only! Plese login or register!



Użytkownik VIP

adamdzUżytkownik

#1 | Dodany: 24 Grudzień 2012 21:09

byłbym wdzięczny za Robin Hooda w avi sd

Wesołych świąt laughing
Użytkownik VIP

RaperSuper Uploader

#2 | Dodany: 27 Grudzień 2012 15:37

Robin.Hood.Prince.Of.Thieves.1991.PL.720p.BRRip.XviD.AC3-DustnWind

LICZBA PLIKOW: 1 | 3.76 GB
PARAMETRY: Video - 1280x720, XviD ~3247 kbps; Audio - AC3 ~224 kbps
INFO DODATKOWE: Lektor PL

Uwaga! Linki nie zakodowane tylko dla zarejestrowanych użytkowników!

Nie masz konta? Zarejestruj się za darmo!
----------------
Links are not encoded only for registered users only! Plese login or register!
MOJE TEMATY
(O_o) Pozdrawiam (o_O)
Użytkownik VIP

adamdzUżytkownik

#3 | Dodany: 16 Styczeń 2013 18:59

byłbym wdzięczny za Robin Hooda avi 480p smile

Informacje

Jeżeli chcesz skomentować artykuł musisz być zarejestrowany na stronie.