EXSite.pl - Portal ze wszystkim Mamy tutaj wszystko

NIE MASZ JESZCZE KONTA? ZAREJESTRUJ SIĘ ZA DARMO!   
Przypomnij hasło X

Dwóch gniewnych ludzi / Anger Management (2003) PL.720p.BRRip.XviD.AC3-DustnWind | Lektor PL

Dodał: ampatinis 26 Grudzień 2012 22:58


Dwóch gniewnych ludzi / Anger Management (2003) PL.720p.BRRip.XviD.AC3-DustnWind | Lektor PL

Dwóch gniewnych ludzi / Anger Management (2003) PL.720p.BRRip.XviD.AC3-DustnWind | Lektor PL


Dwóch gniewnych ludzi / Anger Management (2003) PL.720p.BRRip.XviD.AC3-DustnWind | Lektor PL

Reżyseria: Peter Segal
Scenariusz: David Dorfman
Premiera: 25 lipca 2003 (Polska), 5 marca 2003 (świat)
Produkcja: USA
Gatunek: Dramat, Komedia
Czas trwania: 106 min

Anger Management? to taka ot, terapia. Taka terapia całkiem ot, wstrząsowa. Nawet bardzo wstrząsowa jeśli wymaga tego sytuacja. W tym filmie sytuacja wymaga! Wszak młody, nudny jak flaki z olejem i rozlazły jak przegotowany ziemniak Dave, wskutek dziwnego i niezrozumiałego dla? zbiegu okoliczności, napada w samolocie na stewardesę. Tym samym zmuszony jest rozpocząć ot, terapię. Powodem zmuszenia jest nie tyle napaść na obsługę pokładową co następny, przedziwny zbieg okoliczności. Okazuje się bowiem, że podczas feralnego zdarzenia w samolocie Dave zajął miejsce obok dr Buddy?ego, a ekscentryczny, szalony doktor jest nikim innym jak właśnie pomysłodawcą i prowadzącym terapię ?Anger Management?! Ta ma na celu zdziałanie, aby znerwicowany pacjent nauczył się kontrolować swój gniew. Doktor Buddy jest bezlitosny! Dave zaś wydaje się być przypadkiem krytycznym więc doktor postanawia nadzorować jego życie 24 godziny na dobę: w domu, w podróży, w pracy i w łóżku. A czasami "zupa jest za słona"?




General
Complete name : Anger.Management.2003.PL.720p.BRRip.XviD.AC3-DustnWind.avi
Format : AVI
Format/Info : Audio Video Interleave
Format profile : OpenDML
File size : 2.89 GiB
Duration : 1h 45mn
Overall bit rate : 3 943 Kbps
Writing application : VirtualDubMod 1.5.10.2 (build 2540/release)
Writing library : VirtualDubMod build 2540/release

Video
ID : 0
Format : MPEG-4 Visual
Format profile : Advanced Simple@L5
Format settings, BVOP : Yes
Format settings, QPel : No
Format settings, GMC : No warppoints
Format settings, Matrix : Default (MPEG)
Codec ID : XVID
Codec ID/Hint : XviD
Duration : 1h 45mn
Bit rate : 3 292 Kbps
Width : 1 280 pixels
Height : 532 pixels
Display aspect ratio : 2.40:1
Frame rate : 23.976 fps
Color space : YUV
Chroma subsampling : 4:2:0
Bit depth : 8 bits
Scan type : Progressive
Compression mode : Lossy
Bits/(Pixel*Frame) : 0.202
Stream size : 2.42 GiB (84%)
Writing library : XviD 1.2.1 (UTC 2008-12-04)

Audio
ID : 1
Format : AC-3
Format/Info : Audio Coding 3
Mode extension : CM (complete main)
Codec ID : 2000
Duration : 1h 45mn
Bit rate mode : Constant
Bit rate : 640 Kbps
Channel(s) : 6 channels
Channel positions : Front: L C R, Side: L R, LFE
Sampling rate : 48.0 KHz
Bit depth : 16 bits
Compression mode : Lossy
Stream size : 481 MiB (16%)
Alignment : Split accross interleaves
Interleave, duration : 42 ms (1.00 video frame)
Interleave, preload duration : 500 ms


Dwóch gniewnych ludzi / Anger Management (2003) PL.720p.BRRip.XviD.AC3-DustnWind | Lektor PL

Dwóch gniewnych ludzi / Anger Management (2003) PL.720p.BRRip.XviD.AC3-DustnWind | Lektor PL Dwóch gniewnych ludzi / Anger Management (2003) PL.720p.BRRip.XviD.AC3-DustnWind | Lektor PL

Dwóch gniewnych ludzi / Anger Management (2003) PL.720p.BRRip.XviD.AC3-DustnWind | Lektor PL
Uwaga! Linki nie zakodowane tylko dla zarejestrowanych użytkowników!

Nie masz konta? Zarejestruj się za darmo!
----------------
Links are not encoded only for registered users only! Plese login or register!



Użytkownik VIP

ja to ten złyUżytkownik

#1 | Dodany: 27 Grudzień 2012 05:19

.Zawsze Spoko! :-)

Informacje

Jeżeli chcesz skomentować artykuł musisz być zarejestrowany na stronie.