EXSite.pl - Portal ze wszystkim Mamy tutaj wszystko

NIE MASZ JESZCZE KONTA? ZAREJESTRUJ SIĘ ZA DARMO!   
Przypomnij hasło X

Edward Nożycoręki / Edward Scissorhands (1990) PL.720p.BRRip.XviD.AC3-GRG | Lektor PL

Dodał: ampatinis 26 Grudzień 2012 23:01


Edward Nożycoręki / Edward Scissorhands (1990) PL.720p.BRRip.XviD.AC3-GRG | Lektor PL

Edward Nożycoręki / Edward Scissorhands (1990) PL.720p.BRRip.XviD.AC3-GRG | Lektor PL

Edward Nożycoręki / Edward Scissorhands (1990) PL.720p.BRRip.XviD.AC3-GRG | Lektor PL

Reżyseria: Tim Burton
Scenariusz: Tim Burton, Caroline Thompson
Premiera: 6 grudnia 1990 (świat)
Produkcja: USA
Gatunek: Dramat, Fantasy
Czas trwania: 105 min

Właściciel ogromnego zamczyska, położonego na wzgórzu, powołuje do życia niezwykłego chłopca-cyborga, Edwarda. Zamiast dłoni ma on nożyczki, którymi niezwykle sprawnie się posługuje. Jest prawdziwym artystą, istotą bardzo wrażliwą. Po śmierci swego twórcy chłopiec opuszcza mury zamczyska i rusza w świat. Trafia na przedmieścia pobliskiego miasteczka, gdzie po pokonaniu nieufności mieszka?ców, staje się ich nadwornym ogrodnikiem i fryzjerem, kreując najwymyślniejsze rzeźby i fryzury. Nikt nie próbuje się z nim zaprzyjaźnić, czy choćby okazać większego zainteresowania, traktując go jak kolejny przedmiot użytkowy. Jedynie energiczna akwizytorka kosmetyków okazuje mu współczucie i zaprasza, by zamieszkał z jej rodziną. Tu poznaje śliczną córkę gospodyni - Kim, z pozoru równie wrażliwą jak on. Mimo to Edward nadal nie znajduje bratniej duszy. Film został zrealizowany wg scenariusza, który powstał na podstawie dziecięcej wizji jego twórcy - Tima Burtona.


General
Complete name : Edward.Scissorhands.1990.PL.720p.BRRip.XviD.AC3-GRG.avi
Format : AVI
Format/Info : Audio Video Interleave
Format profile : OpenDML
File size : 3.44 GiB
Duration : 1h 44mn
Overall bit rate : 4 688 Kbps
Writing application : VirtualDubMod 1.5.10.2 (build 2540/release)
Writing library : VirtualDubMod build 2540/release

Video
ID : 0
Format : MPEG-4 Visual
Format profile : Advanced Simple@L5
Format settings, BVOP : Yes
Format settings, QPel : No
Format settings, GMC : No warppoints
Format settings, Matrix : Default (MPEG)
Codec ID : XVID
Codec ID/Hint : XviD
Duration : 1h 44mn
Bit rate : 4 230 Kbps
Width : 1 280 pixels
Height : 688 pixels
Display aspect ratio : 1.860
Frame rate : 23.976 fps
Color space : YUV
Chroma subsampling : 4:2:0
Bit depth : 8 bits
Scan type : Progressive
Compression mode : Lossy
Bits/(Pixel*Frame) : 0.200
Stream size : 3.10 GiB (90%)
Writing library : XviD 1.2.1 (UTC 2008-12-04)

Audio
ID : 1
Format : AC-3
Format/Info : Audio Coding 3
Mode extension : CM (complete main)
Codec ID : 2000
Duration : 1h 44mn
Bit rate mode : Constant
Bit rate : 448 Kbps
Channel(s) : 6 channels
Channel positions : Front: L C R, Side: L R, LFE
Sampling rate : 48.0 KHz
Bit depth : 16 bits
Compression mode : Lossy
Stream size : 336 MiB (10%)
Alignment : Split accross interleaves
Interleave, duration : 42 ms (1.00 video frame)
Interleave, preload duration : 500 ms


Edward Nożycoręki / Edward Scissorhands (1990) PL.720p.BRRip.XviD.AC3-GRG | Lektor PL

Edward Nożycoręki / Edward Scissorhands (1990) PL.720p.BRRip.XviD.AC3-GRG | Lektor PL Edward Nożycoręki / Edward Scissorhands (1990) PL.720p.BRRip.XviD.AC3-GRG | Lektor PL


Edward Nożycoręki / Edward Scissorhands (1990) PL.720p.BRRip.XviD.AC3-GRG | Lektor PL
Uwaga! Linki nie zakodowane tylko dla zarejestrowanych użytkowników!

Nie masz konta? Zarejestruj się za darmo!
----------------
Links are not encoded only for registered users only! Plese login or register!



Użytkownik VIP

Stan63Użytkownik

#1 | Dodany: 27 Grudzień 2012 02:58

ok 5 ok
Użytkownik VIP

ja to ten złyUżytkownik

#2 | Dodany: 27 Grudzień 2012 05:13

To ja też dam 5

.Zawsze Spoko! :-)
Użytkownik VIP

kartaczVIP Uploader

#3 | Dodany: 17 Lipiec 2013 15:32

Edward Nożycoręki / Edward Scissorhands (1990) PL.DVDRip.XviD-KiCZ


RIP INFO:
Edward.Scissorhands.1990.PL.DVDRip.XviD-KiCZ

Video............: 608 x 320, XviD, 846 kbps
Audio............: MP3, 112 kbps, 2 kanały
Czas trwania.....: 100 min.
Język............: Polski Lektor
Rozmiar..........: 700 MB
Rodzaj kompresji.: Brak
Zawartość uploadu: plik .avi
Dane naprawcze...: Brak


5fantastic

Uwaga! Linki nie zakodowane tylko dla zarejestrowanych użytkowników!

Nie masz konta? Zarejestruj się za darmo!
----------------
Links are not encoded only for registered users only! Plese login or register!


~~1 Plik - Pobierasz i Oglądasz~~

Uwaga! Linki nie zakodowane tylko dla zarejestrowanych użytkowników!

Nie masz konta? Zarejestruj się za darmo!
----------------
Links are not encoded only for registered users only! Plese login or register!

Informacje

Jeżeli chcesz skomentować artykuł musisz być zarejestrowany na stronie.