EXSite.pl - Portal ze wszystkim Mamy tutaj wszystko

NIE MASZ JESZCZE KONTA? ZAREJESTRUJ SIĘ ZA DARMO!   
Przypomnij hasło X

Gangi Nowego Jorku / Gangs of New York (2002) PL.REMASTERED.720p.BRRip.XviD.AC3-DustnWind | Lektor PL

Dodał: ampatinis 26 Grudzień 2012 23:06


Gangi Nowego Jorku / Gangs of New York (2002) PL.REMASTERED.720p.BRRip.XviD.AC3-DustnWind | Lektor PL

Gangi Nowego Jorku / Gangs of New York (2002) PL.REMASTERED.720p.BRRip.XviD.AC3-DustnWind | Lektor PL

Gangi Nowego Jorku / Gangs of New York (2002) PL.REMASTERED.720p.BRRip.XviD.AC3-DustnWind | Lektor PL

Reżyseria: Martin Scorsese
Scenariusz: Martin Scorsese, Steven Zaillian
Premiera: 4 kwietnia 2003 (Polska), 9 grudnia 2002 (świat)
Produkcja: Holandia, Niemcy
Gatunek: Dramat, Kostiumowy
Czas trwania: 167 min

XIX wiek, nowojorska dzielnica Five Points, jedno z najbiedniejszych miejsc w całej Ameryce, gdzie gangi walczyły o kontrolę na ulicach. W tych czasach bezprawia i niepohamowanej politycznej korupcji rozgrywa się filmowa historia Amsterdama Vallona (Leonardo DiCaprio), młodego irlandzkiego imigranta. Po 15-letnim pobycie w więzieniu, bohater wraca do Five Points, by zemścić się na Williamie Cuttingu (Daniel Day Lewis), zwanym też Billem Rzeźnikiem, przywódcy anty-imigranckiego gangu, który odpowiada za śmierć ojca Amsterdama. Chłopak wie, że pierwszym krokiem do dokonania wendetty jest wniknięcie w najbliższy krąg Billa. W międzyczasie Amsterdam poznaje Jenny Everdeane (Cameron Diaz), enigmatyczną kobietę-kieszonkowca, której ogromne poczucie niezależności i fascynująca piękność zniewalają go bez reszty. Jenny ma jednak własną mroczną przeszłość, która niespodziewanie komplikuje plany bohatera. Podróż Amsterdama przez ciemne zaułki Five Points przeradza się w walkę nie tylko o własne przetrwanie ale także o dobro ludzi jemu podobnych. Jego zmagania zbiegają się w czasie z największymi rozruchami w dziejach Ameryki zamieszkami, które wybuchły w Nowym Jorku, gdy w 1863 roku do miasta zawitały echa Wojny Secesyjnej.


General
Complete name : Gangs.Of.New.York.2002.PL.REMASTERED.720p.BRRip.XviD.AC3-DustnWind.avi
Format : AVI
Format/Info : Audio Video Interleave
Format profile : OpenDML
File size : 4.30 GiB
Duration : 2h 46mn
Overall bit rate : 3 694 Kbps
Writing application : VirtualDubMod 1.5.10.2 (build 2540/release)
Writing library : VirtualDubMod build 2540/release

Video
ID : 0
Format : MPEG-4 Visual
Format profile : Advanced Simple@L5
Format settings, BVOP : Yes
Format settings, QPel : No
Format settings, GMC : No warppoints
Format settings, Matrix : Default (MPEG)
Codec ID : XVID
Codec ID/Hint : XviD
Duration : 2h 46mn
Bit rate : 3 256 Kbps
Width : 1 280 pixels
Height : 544 pixels
Display aspect ratio : 2.35:1
Frame rate : 23.976 fps
Color space : YUV
Chroma subsampling : 4:2:0
Bit depth : 8 bits
Scan type : Progressive
Compression mode : Lossy
Bits/(Pixel*Frame) : 0.195
Stream size : 3.79 GiB (88%)
Writing library : XviD 1.2.1 (UTC 2008-12-04)

Audio
ID : 1
Format : AC-3
Format/Info : Audio Coding 3
Mode extension : CM (complete main)
Codec ID : 2000
Duration : 2h 39mn
Bit rate mode : Constant
Bit rate : 448 Kbps
Channel(s) : 6 channels
Channel positions : Front: L C R, Side: L R, LFE
Sampling rate : 48.0 KHz
Bit depth : 16 bits
Compression mode : Lossy
Stream size : 511 MiB (12%)
Alignment : Split accross interleaves
Interleave, duration : 44 ms (1.04 video frame)
Interleave, preload duration : 500 ms


Gangi Nowego Jorku / Gangs of New York (2002) PL.REMASTERED.720p.BRRip.XviD.AC3-DustnWind | Lektor PL

Gangi Nowego Jorku / Gangs of New York (2002) PL.REMASTERED.720p.BRRip.XviD.AC3-DustnWind | Lektor PL Gangi Nowego Jorku / Gangs of New York (2002) PL.REMASTERED.720p.BRRip.XviD.AC3-DustnWind | Lektor PL


Gangi Nowego Jorku / Gangs of New York (2002) PL.REMASTERED.720p.BRRip.XviD.AC3-DustnWind | Lektor PL
Uwaga! Linki nie zakodowane tylko dla zarejestrowanych użytkowników!

Nie masz konta? Zarejestruj się za darmo!
----------------
Links are not encoded only for registered users only! Plese login or register!



Użytkownik VIP

MaRCiNJaCKUżytkownik

#1 | Dodany: 27 Grudzień 2012 09:39

thx

Informacje

Jeżeli chcesz skomentować artykuł musisz być zarejestrowany na stronie.