EXSite.pl - Portal ze wszystkim Mamy tutaj wszystko

NIE MASZ JESZCZE KONTA? ZAREJESTRUJ SIĘ ZA DARMO!   
Przypomnij hasło X

Armageddon (1998) PL.720p.BDRip.XviD.AC3-SJ | Lektor PL

Dodał: ampatinis 27 Grudzień 2012 15:59


Armageddon (1998) PL.720p.BDRip.XviD.AC3-SJ | Lektor PL

Armageddon (1998) PL.720p.BDRip.XviD.AC3-SJ | Lektor PL

Armageddon (1998) PL.720p.BDRip.XviD.AC3-SJ | Lektor PL

Reżyseria: Michael Bay
Scenariusz: Liam Neeson, Michael Cera
Premiera: 24 lipca 1998 (Polska), 1 lipca 1998 (świat)
Produkcja: USA
Gatunek: Akcja, Katastroficzny
Czas trwania: 150 min

Naukowcy NASA odkrywają, że do Ziemi zbliża się asteroida równa powierzchni stanu Teksas, pędząca w szybkością 35 000 kilometrów na godzinę. Jeżeli zderzy się z Ziemią, nasza planetę czeka nieuchronna zagłada. Szef NASA Dan Truman zdaje sobie sprawę, że zapobiec katastrofie może jedynie misja promu kosmicznego, której uczestnicy wylądują na asteroidzie, wywiercą w niej otwory i umieszczą w nich ładunki nuklearne. Jedynym człowiekiem, który zdolny jest poprowadzić taka misję jest Harry Stamper, światowej klasy specjalista od wierce? naftowych. Los świata spoczywa w jego rękach...




General
Complete name : Armageddon.avi
Format : AVI
Format/Info : Audio Video Interleave
Format profile : OpenDML
File size : 3.69 GiB
Duration : 2h 30mn
Overall bit rate : 3 500 Kbps
Movie name : Armageddon
Writing application : AVI-Mux GUI 1.17.8.3, Feb 16 201019:42:50

Video
ID : 0
Format : MPEG-4 Visual
Format profile : Advanced Simple@L5
Format settings, BVOP : Yes
Format settings, QPel : No
Format settings, GMC : No warppoints
Format settings, Matrix : Default (H.263)
Muxing mode : Packed bitstream
Codec ID : XVID
Codec ID/Hint : XviD
Duration : 2h 30mn
Bit rate : 2 855 Kbps
Width : 1 280 pixels
Height : 528 pixels
Display aspect ratio : 2.40:1
Frame rate : 23.976 fps
Color space : YUV
Chroma subsampling : 4:2:0
Bit depth : 8 bits
Scan type : Progressive
Compression mode : Lossy
Bits/(Pixel*Frame) : 0.176
Stream size : 3.01 GiB (82%)
Writing library : XviD 1.2.1 (UTC 2008-12-04)

Audio
ID : 1
Format : AC-3
Format/Info : Audio Coding 3
Mode extension : CM (complete main)
Codec ID : 2000
Duration : 2h 30mn
Bit rate mode : Constant
Bit rate : 640 Kbps
Channel(s) : 6 channels
Channel positions : Front: L C R, Side: L R, LFE
Sampling rate : 48.0 KHz
Bit depth : 16 bits
Compression mode : Lossy
Stream size : 690 MiB (18%)
Alignment : Aligned on interleaves
Interleave, duration : 64 ms (1.53 video frames)
Interleave, preload duration : 192 ms
Title : audio


Armageddon (1998) PL.720p.BDRip.XviD.AC3-SJ | Lektor PL

Armageddon (1998) PL.720p.BDRip.XviD.AC3-SJ | Lektor PL Armageddon (1998) PL.720p.BDRip.XviD.AC3-SJ | Lektor PL


Armageddon (1998) PL.720p.BDRip.XviD.AC3-SJ | Lektor PL
Uwaga! Linki nie zakodowane tylko dla zarejestrowanych użytkowników!

Nie masz konta? Zarejestruj się za darmo!
----------------
Links are not encoded only for registered users only! Plese login or register!



Użytkownik VIP

derka78Użytkownik

#1 | Dodany: 27 Grudzień 2012 16:25

kiedyś oglądałem ten film dobry jest najlepiej jak na ko?cu wlatują to tego statku kosmicznego i palą cygara... dobry film
to zaawansowana technologia
Użytkownik VIP

MaRCiNJaCKUżytkownik

#2 | Dodany: 27 Grudzień 2012 16:32

wink
Użytkownik VIP

wally74Użytkownik

#3 | Dodany: 27 Grudzień 2012 18:41

Cygara palą w filmie Dzie? Niepodległości
Użytkownik VIP

derka78Użytkownik

#4 | Dodany: 27 Grudzień 2012 19:28

to żeś mi Pan klina zabił...:/ teraz muszę oba obejrzeć do ko?ca dem
to zaawansowana technologia

Informacje

Jeżeli chcesz skomentować artykuł musisz być zarejestrowany na stronie.