EXSite.pl - Portal ze wszystkim Mamy tutaj wszystko

NIE MASZ JESZCZE KONTA? ZAREJESTRUJ SIĘ ZA DARMO!   
Przypomnij hasło X

Bardzo dziki Zachód / Wild Wild West (1999) PL.720p.BRRip.XviD.AC3-ELiTE | Lektor PL

Dodał: ampatinis 27 Grudzień 2012 16:13


Bardzo dziki Zachód / Wild Wild West (1999) PL.720p.BRRip.XviD.AC3-ELiTE | Lektor PL

Bardzo dziki Zachód / Wild Wild West (1999) PL.720p.BRRip.XviD.AC3-ELiTE | Lektor PL

Bardzo dziki Zachód / Wild Wild West (1999) PL.720p.BRRip.XviD.AC3-ELiTE | Lektor PL

Reżyseria: Barry Sonnenfeld
Scenariusz: Liam Neeson, Michael Cera
Premiera: 3 września 1999 (Polska), 30 czerwca 1999 (świat)
Produkcja: USA
Gatunek: Komedia, Sci-Fi
Czas trwania: 107 min

Specjalny agent rządowy James West (Smith), wyjątkowo czarujący i sprytny oraz towarzyszący mu agent Artemus Gordon (Kline), mistrz kamuflażu i specjalista od gadżetów wszelkich rodzajów, wyruszają razem w pościg za diabolicznym Dr Arlissem Loveless (Branagh). Loveless planuje zamach na życie prezydenta Stanów Zjednoczonych, do czego zamierza także wykorzystać swoją ogromną, chodzącą bro? zwaną Tarantulą. Początkowo West i Gordon odnoszą się do siebie mało przychylnie, jednak z czasem zaczynają dostrzegać pozytywne skutki swojej współpracy. Piękna i tajemnicza aktoreczka Rita Escobar (Hayek) wywraca do góry nogami ich plan, kiedy postanawia pomóc im w schwytaniu Lovelessa. Dr Arliss ma w zanadrzu ukryty arsenał środków, którymi będzie starał się powstrzymać stróżów prawa. Ma do pomocy między innymi zabójczo piękne: pannę East (Bai Ling), Amazonię (Frederique Van Der Wal), Munitię (Musetta Vander) oraz pannę Lippenreider (Sofia Eng), których wyjątkowe atrybuty są śmiertelnym zagrożeniem dla Westa i Gordona. Romans, humor, zabójcza bro?, zdrada i mrożąca krew w żyłach akcja wypełniają przygody Westa i Gordona, którzy robią wszystko, aby przechytrzyć wroga.


General
Complete name : Wild.Wild.West.1999.PL.720p.BRRip.XviD.AC3-ELiTE.avi
Format : AVI
Format/Info : Audio Video Interleave
Format profile : OpenDML
File size : 2.94 GiB
Duration : 1h 46mn
Overall bit rate : 3 975 Kbps
Writing application : VirtualDubMod 1.5.10.2 (build 2540/release)
Writing library : VirtualDubMod build 2540/release

Video
ID : 0
Format : MPEG-4 Visual
Format profile : Advanced Simple@L5
Format settings, BVOP : Yes
Format settings, QPel : No
Format settings, GMC : No warppoints
Format settings, Matrix : Custom
Codec ID : XVID
Codec ID/Hint : XviD
Duration : 1h 46mn
Bit rate : 3 580 Kbps
Width : 1 280 pixels
Height : 720 pixels
Display aspect ratio : 16:9
Frame rate : 23.976 fps
Color space : YUV
Chroma subsampling : 4:2:0
Bit depth : 8 bits
Scan type : Progressive
Compression mode : Lossy
Bits/(Pixel*Frame) : 0.162
Stream size : 2.65 GiB (90%)
Writing library : XviD 1.2.1 (UTC 2008-12-04)

Audio
ID : 1
Format : AC-3
Format/Info : Audio Coding 3
Mode extension : CM (complete main)
Codec ID : 2000
Duration : 1h 46mn
Bit rate mode : Constant
Bit rate : 384 Kbps
Channel(s) : 6 channels
Channel positions : Front: L C R, Side: L R, LFE
Sampling rate : 48.0 KHz
Bit depth : 16 bits
Compression mode : Lossy
Stream size : 291 MiB (10%)
Alignment : Split accross interleaves
Interleave, duration : 42 ms (1.00 video frame)
Interleave, preload duration : 500 ms



Bardzo dziki Zachód / Wild Wild West (1999) PL.720p.BRRip.XviD.AC3-ELiTE | Lektor PL
Uwaga! Linki nie zakodowane tylko dla zarejestrowanych użytkowników!

Nie masz konta? Zarejestruj się za darmo!
----------------
Links are not encoded only for registered users only! Plese login or register!



Użytkownik VIP

ELiTE2Użytkownik

#1 | Dodany: 27 Grudzień 2012 16:58

ok
Biednemu to nawet chuj w dupe

Informacje

Jeżeli chcesz skomentować artykuł musisz być zarejestrowany na stronie.