EXSite.pl - Portal ze wszystkim Mamy tutaj wszystko

NIE MASZ JESZCZE KONTA? ZAREJESTRUJ SIĘ ZA DARMO!   
Przypomnij hasło X

Siła Perswazji / Compliance (2012) 480p.BDRip.XViD.AC3-26k

Dodał: BrettHopper 2 Styczeń 2013 16:25


Siła Perswazji / Compliance (2012) 480p.BDRip.XViD.AC3-26k

Siła Perswazji / Compliance (2012) 480p.BDRip.XViD.AC3-26k


Siła Perswazji / Compliance (2012) 480p.BDRip.XViD.AC3-26k
gatunek: Dramat, Thriller
produkcja: USA
premiera: 21 stycznia 2012 (świat)
reżyseria: Craig Zobel
scenariusz: Craig Zobel

Becky i Sandra nie są najlepszymi przyjaciółkami. Sandra jest w średnim wieku, pracuje w restauracji fast-food, jako kierownik; Becky jest nastolatką, która pilnie potrzebuje pracy. Jeden stresujący dzie? ( za dużo klientów i za mało bekonu) i Becky jest oskarżona o kradzież pieniędzy z torebki klientki. Sandra przytłoczona kierowniczą odpowiedzialnością, zgadza się z decyzją policjanta, aby zatrzymać Becky. Ta decyzja rozpoczyna koszmar, który zamazuje różnicę między potrzebą chwili a zapobiegliwością. Historia oparta na faktach.


SCREENY:
Siła Perswazji / Compliance (2012) 480p.BDRip.XViD.AC3-26k
Siła Perswazji / Compliance (2012) 480p.BDRip.XViD.AC3-26k
Siła Perswazji / Compliance (2012) 480p.BDRip.XViD.AC3-26k



DANE TECHNICZNE:
Sources - VIDEO: Compliance.2012.1080p.BluRay.AVC.DTS-HD.MA.5.1 ..... thanks ....
AUDIO: Compliance.2012.1080p.BluRay.AVC.DTS-HD.MA.5.1 ..... thanks ....

Format : AVI
Format/Info : Audio Video Interleave
File size : 1.58 GiB
Duration : 1h 29mn
Overall bit rate : 2 519 Kbps

Video
ID : 0
Format : MPEG-4 Visual
Format profile : Advanced Simple@L5
Format settings, BVOP : 2
Format settings, QPel : No
Format settings, GMC : No warppoints
Format settings, Matrix : Default (H.263)
Codec ID : XVID
Codec ID/Hint : XviD
Duration : 1h 29mn
Bit rate : 2 000 Kbps
Width : 720 pixels
Height : 304 pixels
Display aspect ratio : 2.35:1
Frame rate : 23.976 fps
Color space : YUV
Chroma subsampling : 4:2:0
Bit depth : 8 bits
Scan type : Progressive
Compression mode : Lossy
Bits/(Pixel*Frame) : 0.381
Stream size : 1.25 GiB (79%)
Writing library : XviD 1.2.1 (UTC 2008-12-04)

Audio
ID : 1
Format : AC-3
Format/Info : Audio Coding 3
Mode extension : CM (complete main)
Format settings, Endianness : Big
Codec ID : 2000
Duration : 1h 29mn
Bit rate mode : Constant
Bit rate : 512 Kbps
Channel(s) : 6 channels
Channel positions : Front: L C R, Side: L R, LFE
Sampling rate : 48.0 KHz
Bit depth : 16 bits
Compression mode : Lossy
Stream size : 329 MiB (20%)
Alignment : Aligned on interleaves
Interleave, duration : 64 ms (1.53 video frames)
Interleave, preload duration : 192 ms
Title : 512


Notes -

Took the BD made a script to make magic happen and this is the outcome.. enjoy




DOWNLOAD:
Uwaga! Linki nie zakodowane tylko dla zarejestrowanych użytkowników!

Nie masz konta? Zarejestruj się za darmo!
----------------
Links are not encoded only for registered users only! Plese login or register!

Uwaga! Linki nie zakodowane tylko dla zarejestrowanych użytkowników!

Nie masz konta? Zarejestruj się za darmo!
----------------
Links are not encoded only for registered users only! Plese login or register!

Użytkownik VIP

bhnUżytkownik

#1 | Dodany: 27 Styczeń 2013 13:14

Siła Perswazji / Compliance (2012) PLSUBBED.DVDRip.XviD-Zet / Napisy PL

DANE TECHNICZNE:
Format            : AVI at 1.047 Kb/s
Length            : 672 MB for 1h 29 min. 45s 464ms

Video #0          : MPEG-4 Visual at 588 Kb/s
Aspect            : 640 x 270 (2.370) at 23.976 fps

Audio #0          : AC-3 at 448 Kb/s
Infos             : 6 kanalów, 48,0 KHz
Napisy: PL, wtopione

OPIS UPLOADU:
WERSJA JEZYKOWA: Napisy: PL, wtopione
KOMPRESJA: BRAK
ZAWARTOSC UPLOADU: PLiK .avi
BRAK DANYCH NAPRAWCZYCH
BRAK HASLA
JESLI 2 PARTY I WIECEJ MOZNA POBIERAC NA PRZEMIAN

DOWNLOAD:
Uwaga! Linki nie zakodowane tylko dla zarejestrowanych użytkowników!

Nie masz konta? Zarejestruj się za darmo!
----------------
Links are not encoded only for registered users only! Plese login or register!

Informacje

Jeżeli chcesz skomentować artykuł musisz być zarejestrowany na stronie.