EXSite.pl - Portal ze wszystkim Mamy tutaj wszystko

NIE MASZ JESZCZE KONTA? ZAREJESTRUJ SIĘ ZA DARMO!   
Przypomnij hasło X

Crawlspace (2012) DVDRip.H264.AC3-HS

Dodał: BrettHopper 3 Styczeń 2013 00:50


Crawlspace (2012) DVDRip.H264.AC3-HS

Crawlspace (2012) DVDRip.H264.AC3-HS


Crawlspace (2012) DVDRip.H264.AC3-HS
Grupa elitarnych żołnierzy zostaje wysłana do podziemnej bazy, by uwolnić z niej naukowców. Nie są jednak przygotowani na to, co tam zobaczą.


SCREENY:
Crawlspace (2012) DVDRip.H264.AC3-HS
Crawlspace (2012) DVDRip.H264.AC3-HS
Crawlspace (2012) DVDRip.H264.AC3-HS



DANE TECHNICZNE:
Format : Matroska
Format version : Version 2
File size : 742 MiB
Duration : 1h 26mn

Video

ID : 1
Format : AVC
Format/Info : Advanced Video Codec
Format profile : High@L3.0
Format settings, CABAC : Yes
Format settings, ReFrames : 4 frames
Muxing mode : Header stripping
Codec ID : V_MPEG4/ISO/AVC
Duration : 1h 26mn
Bit rate : 785 Kbps
Width : 720 pixels
Height : 306 pixels
Display aspect ratio : 2.35:1
Frame rate mode : Constant
Frame rate : 24.000 fps
Color space : YUV
Chroma subsampling : 4:2:0
Bit depth : 8 bits
Scan type : Progressive
Bits/(Pixel*Frame) : 0.148
Stream size : 488 MiB (66%)

Audio

ID : 2
Format : AC-3
Format/Info : Audio Coding 3
Codec ID : A_AC3
Duration : 1h 26mn
Bit rate mode : Constant
Bit rate : 384 Kbps
Channel(s) : 6 channels
Channel positions : Front: L C R, Side: L R, LFE
Sampling rate : 44.1 KHz
Bit depth : 16 bits
Compression mode : Lossy
Stream size : 239 MiB (32%)
Default : Yes
Forced : No




DOWNLOAD:
Uwaga! Linki nie zakodowane tylko dla zarejestrowanych użytkowników!

Nie masz konta? Zarejestruj się za darmo!
----------------
Links are not encoded only for registered users only! Plese login or register!

Uwaga! Linki nie zakodowane tylko dla zarejestrowanych użytkowników!

Nie masz konta? Zarejestruj się za darmo!
----------------
Links are not encoded only for registered users only! Plese login or register!

Użytkownik VIP

MerkantVIP

#1 | Dodany: 4 Styczeń 2013 00:56

Uwaga! Linki nie zakodowane tylko dla zarejestrowanych użytkowników!

Nie masz konta? Zarejestruj się za darmo!
----------------
Links are not encoded only for registered users only! Plese login or register!
Użytkownik VIP

valFannUżytkownik

#2 | Dodany: 3 Luty 2013 11:37

Uwaga! Linki nie zakodowane tylko dla zarejestrowanych użytkowników!

Nie masz konta? Zarejestruj się za darmo!
----------------
Links are not encoded only for registered users only! Plese login or register!
Użytkownik VIP

lankusiekUżytkownik

#3 | Dodany: 4 Luty 2013 20:27

Crawlspace (2012) PLSUBBED.WEB-DL.XViD-MX / Napisy PL


DANE TECHNiCZNE:
Format            : AVI at 1.121 Kb/s
Length            : 698 MB for 1h 26 min. 59s 214ms

Video #0          : MPEG-4 Visual at 920 Kb/s
Aspect            : 688 x 278 (2.475) at 23.976 fps

Audio #0          : AC-3 at 192 Kb/s
Infos             : 2 kanały, 48,0 KHz

Napisy PL


Screeny z tej kopii:
http://s6.ifotos.pl/img/Crawlspac_xsaaxxn.jpg


DOWNLOAD: / 2 serwery do wyboru:


.:CATSHARE.NET:.
Uwaga! Linki nie zakodowane tylko dla zarejestrowanych użytkowników!

Nie masz konta? Zarejestruj się za darmo!
----------------
Links are not encoded only for registered users only! Plese login or register!


.:CREAFILE.NET:.
Uwaga! Linki nie zakodowane tylko dla zarejestrowanych użytkowników!

Nie masz konta? Zarejestruj się za darmo!
----------------
Links are not encoded only for registered users only! Plese login or register!

Informacje

Jeżeli chcesz skomentować artykuł musisz być zarejestrowany na stronie.