EXSite.pl - Portal ze wszystkim Mamy tutaj wszystko

NIE MASZ JESZCZE KONTA? ZAREJESTRUJ SIĘ ZA DARMO!   
Przypomnij hasło X

Salo, czyli 120 dni Sodomy / Salò o le 120 giornate di Sodoma (1975) PL.DVDRip.XviD.AC3-Evo.ST | Lektor PL + x264

Dodał: YOMATA 5 Styczeń 2013 01:54


Salo, czyli 120 dni Sodomy / Salò o le 120 giornate di Sodoma (1975) PL.DVDRip.XviD.AC3-Evo.ST | Lektor PL

Salo, czyli 120 dni Sodomy / Salò o le 120 giornate di Sodoma (1975) PL.DVDRip.XviD.AC3-Evo.ST | Lektor PL + x264

Salo, czyli 120 dni Sodomy / Salò o le 120 giornate di Sodoma (1975) PL.DVDRip.XviD.AC3-Evo.ST | Lektor PL + x264

Ostatni film Pier Paulo Pasoliniego, na temat którego krążyły legendy jaki to jest okrutny, zły, perwersyjny. W dodatku reżyser wkrótce po premierze został brutalnie zamordowany. Film luźno oparty na powiesci Markiza De Sade, ale przeniesiony w inne realia historyczne (Druga Wojna światowa). Akcja dzieje się we Wloszech, gdzie kilku faszystów więzi w willi mlodych mieszka?ców miasteczka. Z udzialem dziewcząt i chłopców urządzają okrutną wielodniową orgię. Dzisiaj film może już tak nie szokuje, ale nadal jest to obraz w złym smaku.



Release Date .........: 2013.01.01
Source V/A ...........: DVD
Encoded by ...........: mario34m

Lang. ................: Polish Lector


Video:
Codec /Bitrate .......: Xvid / 1217
Resolution ...........: 704 x 384

Audio:
Codec ................: AC3
Channels .............: 2
Bitrate ..............: 448

Size..................: 1.36 GB
Runtime ..............: 1:56:44



Salo, czyli 120 dni Sodomy / Salò o le 120 giornate di Sodoma (1975) PL.DVDRip.XviD.AC3-Evo.ST | Lektor PL + x264
Uwaga! Linki nie zakodowane tylko dla zarejestrowanych użytkowników!

Nie masz konta? Zarejestruj się za darmo!
----------------
Links are not encoded only for registered users only! Plese login or register!




Wersja x264

Format : Matroska at 515 Kb/s
Length : 430 MB for 1h 56 min. 42s 836ms

Video #0 : AVC
Aspect : 704 x 384 (1.833) at 29.970 fps

Audio #0 : AAC
Infos : 2 kanały, 44,1 KHz


Uwaga! Linki nie zakodowane tylko dla zarejestrowanych użytkowników!

Nie masz konta? Zarejestruj się za darmo!
----------------
Links are not encoded only for registered users only! Plese login or register!


Użytkownik VIP

jodelaUżytkownik

#1 | Dodany: 4 Styczeń 2013 02:23

Najbardziej popierdolony film w całej kinomatografi
Użytkownik VIP

yar1Użytkownik

#2 | Dodany: 4 Styczeń 2013 02:35

Szkoda że źle przycięty, bo to już klasyka.
Użytkownik VIP

angel77VIP

#3 | Dodany: 4 Styczeń 2013 07:32

Cytat: jodela
Najbardziej popierdolony film w całej kinomatografi

Bardzo delikatnie ujęte, co do tego filmu.
Użytkownik VIP

ufok14Użytkownik

#4 | Dodany: 4 Styczeń 2013 16:46

linki zdechły niestety
Użytkownik VIP

cherry2000Użytkownik

#5 | Dodany: 4 Styczeń 2013 18:34

Znowu film z nieprawidłowym deinterlacingiem.
Użytkownik VIP

shaka2002Użytkownik

#6 | Dodany: 4 Styczeń 2013 20:41

Film świetny, ale książka dużo lepsza :)
"Nigdy nie dyskutuj z idiotą. Najpierw sprowadzi ci? do swojego poziomu a potem pokona doświadczeniem."
Użytkownik VIP

Martinus30Użytkownik

#7 | Dodany: 5 Styczeń 2013 08:13

Oglądałem parę lat temu, faktycznie trochę popieprzony ale bardziej niż popieprzony to jest cholernie nudny, nudzi całą to swoją w kółko powtarzaną perwersją,ledwo da się wytrzymać do ko?ca, bo rzeczywiście dziś już taki obraz nie razi tak w oczy.
Dziś to odbiorcami tego filmu mogą być emo-kids, pseudofani twórczości Markiza De Sade, kontrowersyjni chłopcy o wyglądzie i głosie panienek tnący się żyletkami, którzy w szkole będą się chwalić jaki to popierdolony film oglądali.
Użytkownik VIP

adrunrlUżytkownik

#8 | Dodany: 5 Styczeń 2013 10:27

Informacje o pliku:

Format : AVI
Format/Info : Audio Video Interleave
Format profile : OpenDML
File size : 1.44 GiB
Duration : 1h 56mn
Overall bit rate : 1 761 Kbps
Writing application : Lavf51.12.1

Video
ID : 0
Format : xvid
Codec ID : xvid
Duration : 1h 56mn
Bit rate : 1 553 Kbps
Width : 704 pixels
Height : 384 pixels
Display aspect ratio : 1.85:1
Frame rate : 29.970 fps
Bits/(Pixel*Frame) : 0.192
Stream size : 1.27 GiB (88%)

Audio
ID : 1
Format : MPEG Audio
Format version : Version 1
Format profile : Layer 3
Mode : Joint stereo
Mode extension : MS Stereo
Codec ID : 55
Codec ID/Hint : MP3
Duration : 1h 56mn
Bit rate mode : Constant
Bit rate : 192 Kbps
Channel(s) : 2 channels
Sampling rate : 48.0 KHz
Compression mode : Lossy
Stream size : 161 MiB (11%)
Alignment : Aligned on interleaves
Interleave, duration : 24 ms (0.72 video frame)
Writing library : LAME3.97


Turbobit:

Sample:

http://turbobit.net/io7i363zbtkj.html


Film:

http://turbobit.net/gyobdl22v2i2.html
Użytkownik VIP

chudy457Użytkownik

#9 | Dodany: 5 Styczeń 2013 12:09

angel77,
Powalony film, oglądałem jego parę lat temu, wrażenia takie same "film chory" ale są i gorsze rzeczy.
Użytkownik VIP

krzysiu3344Użytkownik

#10 | Dodany: 5 Styczeń 2013 17:17

Codec ID : XVID
Codec ID/Hint : XviD
Duration : 1h 56mn
Bit rate : 1 218 Kbps
Width : 704 pixels
Height : 384 pixels
Display aspect ratio : 1.85:1
Audio
ID : 1
Format : AC-3
Format/Info : Audio Coding 3
File size : 1.37 GiB





Uwaga! Linki nie zakodowane tylko dla zarejestrowanych użytkowników!

Nie masz konta? Zarejestruj się za darmo!
----------------
Links are not encoded only for registered users only! Plese login or register!
Użytkownik VIP

kartaczVIP Uploader

#11 | Dodany: 17 Sierpień 2013 09:15

Salo, czyli 120 dni Sodomy / Salo o le 120 giornate di Sodoma (1975) PL.DVDRip.XviD-G.M.Team


RIP INFO:
Salo.O.Le.120.Giornate.Di.Sodoma.1975.PL.DVDRip.XviD-G.M.Team

Video............: 640 x 352, XviD, 937 kbps
Audio............: MP3, 128 kbps, 2 kanały
Czas trwania.....: 116 min.
Język............: Polski Lektor
Rozmiar..........: 899 MB
Rodzaj kompresji.: Brak
Zawartość uploadu: plik .avi
Dane naprawcze...: Brak


5fantastic

Uwaga! Linki nie zakodowane tylko dla zarejestrowanych użytkowników!

Nie masz konta? Zarejestruj się za darmo!
----------------
Links are not encoded only for registered users only! Plese login or register!


~~1 Plik - Pobierasz i Oglądasz~~

Uwaga! Linki nie zakodowane tylko dla zarejestrowanych użytkowników!

Nie masz konta? Zarejestruj się za darmo!
----------------
Links are not encoded only for registered users only! Plese login or register!

Informacje

Jeżeli chcesz skomentować artykuł musisz być zarejestrowany na stronie.