EXSite.pl - Portal ze wszystkim Mamy tutaj wszystko

NIE MASZ JESZCZE KONTA? ZAREJESTRUJ SIĘ ZA DARMO!   
Przypomnij hasło X

Ucze? szatana / Apt pupil (1998) PL.720p.BRRip.XviD.AC3-DustnWind | Lektor PL

Dodał: ampatinis 10 Styczeń 2013 18:37


Ucze? szatana / Apt pupil (1998) PL.720p.BRRip.XviD.AC3-DustnWind | Lektor PL

Ucze? szatana / Apt pupil (1998) PL.720p.BRRip.XviD.AC3-DustnWind | Lektor PL

Ucze? szatana / Apt pupil (1998) PL.720p.BRRip.XviD.AC3-DustnWind | Lektor PL

Reżyseria: Bryan Singer
Scenariusz: Zoe Saldana, Hugh Dancy
Premiera: 9 września 1998 (świat)
Produkcja: Francja, Kanada
Gatunek: Dramat, Thriller
Czas trwania: 111 min

Nastolatek, lubiany przez kolegów dobry ucze?, odkrywa pewnego dnia, iż jego sąsiadem jest poszukiwany od czasów wojny nazista. Kiedy pyta staruszka o jego przeszłość - ten zaprzecza. Jednak chłopak nie daje za wygraną i zbiera dowody. Kiedy ma już pewność co do tożsamości mężczyzny, składa mu propozycję, że nie ujawni prawdy, jeśli ten opowie o czasach, kiedy był komendantem obozu koncentracyjnego. W starym człowieku odżywają wspomnienia i uczucia, wciąga chłopca do swojej diabelskiej gry.


General
Complete name : Apt.Pupil.1998.PL.720p.BRRip.XviD.AC3-DustnWind.avi
Format : AVI
Format/Info : Audio Video Interleave
Format profile : OpenDML
File size : 2.74 GiB
Duration : 1h 51mn
Overall bit rate : 3 523 Kbps
Writing application : VirtualDubMod 1.5.10.2 (build 2540/release)
Writing library : VirtualDubMod build 2540/release

Video
ID : 0
Format : MPEG-4 Visual
Format profile : Advanced Simple@L5
Format settings, BVOP : No
Format settings, QPel : No
Format settings, GMC : No warppoints
Format settings, Matrix : Default (H.263)
Codec ID : XVID
Codec ID/Hint : XviD
Duration : 1h 51mn
Bit rate : 3 320 Kbps
Width : 1 280 pixels
Height : 536 pixels
Display aspect ratio : 2.35:1
Frame rate : 23.976 fps
Color space : YUV
Chroma subsampling : 4:2:0
Bit depth : 8 bits
Scan type : Progressive
Compression mode : Lossy
Bits/(Pixel*Frame) : 0.202
Stream size : 2.58 GiB (94%)
Writing library : XviD 1.2.1 (UTC 2008-12-04)

Audio
ID : 1
Format : AC-3
Format/Info : Audio Coding 3
Mode extension : CM (complete main)
Codec ID : 2000
Duration : 1h 51mn
Bit rate mode : Constant
Bit rate : 192 Kbps
Channel(s) : 2 channels
Channel positions : Front: L R
Sampling rate : 48.0 KHz
Bit depth : 16 bits
Compression mode : Lossy
Stream size : 153 MiB (5%)
Alignment : Split accross interleaves
Interleave, duration : 42 ms (1.00 video frame)
Interleave, preload duration : 500 ms


Ucze? szatana / Apt pupil (1998) PL.720p.BRRip.XviD.AC3-DustnWind | Lektor PL

Ucze? szatana / Apt pupil (1998) PL.720p.BRRip.XviD.AC3-DustnWind | Lektor PL Ucze? szatana / Apt pupil (1998) PL.720p.BRRip.XviD.AC3-DustnWind | Lektor PL


Ucze? szatana / Apt pupil (1998) PL.720p.BRRip.XviD.AC3-DustnWind | Lektor PL
Uwaga! Linki nie zakodowane tylko dla zarejestrowanych użytkowników!

Nie masz konta? Zarejestruj się za darmo!
----------------
Links are not encoded only for registered users only! Plese login or register!



Użytkownik VIP

demosisUżytkownik

#1 | Dodany: 10 Styczeń 2013 19:06

a dało by rade w 480p dodać linki
Użytkownik VIP

ja to ten złyUżytkownik

#2 | Dodany: 10 Styczeń 2013 20:32

.Zawsze Spoko!
Użytkownik VIP

szafa_23Użytkownik

#3 | Dodany: 10 Styczeń 2013 21:26

bitshare da rade??
Core i5 3470 3,2@3,8Ghz
Zalman CNPS 10X Performa
Gigabyte GTX 770 OC 4gb @ Gelid Icy Vision rev.2
Msi z77-g43
2x4gb CorsairVegance LP1600mzh 8-9-8-24
Corsair vx 550W
Sb x-fi Xtreme
Win7 Professional 64bit Sp1
Użytkownik VIP

MaRCiNJaCKUżytkownik

#4 | Dodany: 4 Kwiecień 2013 12:02

ok

Informacje

Jeżeli chcesz skomentować artykuł musisz być zarejestrowany na stronie.