EXSite.pl - Portal ze wszystkim Mamy tutaj wszystko

NIE MASZ JESZCZE KONTA? ZAREJESTRUJ SIĘ ZA DARMO!   
Przypomnij hasło X

Liban / Lebanon (2009) PL.720p.BRRip.XviD.AC3-ELiTE | Lektor PL

Dodał: ampatinis 19 Styczeń 2013 20:55


Liban / Lebanon (2009) PL.720p.BRRip.XviD.AC3-ELiTE | Lektor PL

Liban / Lebanon (2009) PL.720p.BRRip.XviD.AC3-ELiTE | Lektor PL

Liban / Lebanon (2009) PL.720p.BRRip.XviD.AC3-ELiTE | Lektor PL

Reżyseria: Samuel Maoz
Scenariusz: Samuel Maoz
Premiera: 5 marca 2010 (Polska), 8 września 2009 (świat)
Produkcja: Francja, Niemcy
Gatunek: Dramat, Wojenny
Czas trwania: 93 min

Pierwsza wojna liba?ska, początek czerwca 1982 roku. Czterech młodych czołgistów, wspartych niewielką grupą żołnierzy piechoty, zostaje wysłanych na swoją pierwszą walkę. Łatwa na pozór misja sprawdzenia obcego terenu przeradza się jednak w horror, okazuje się śmiertelną pułapką, a czwórka izraelskich żołnierzy jest zdana wyłącznie na siebie... Liban to film wyjątkowy. Nikt wcześniej nie pokazał bowiem wojny w taki sposób, w jaki uczynił to Maoz. świat zewnętrzny możemy oglądać tylko z perspektywy uwięzionych w czołgu żołnierzy, obserwując go przez wizjer lufy, co jeszcze bardziej potęguje wrażenie klaustrofobii.


General
Complete name : Liban72.avi
Format : AVI
Format/Info : Audio Video Interleave
Format profile : OpenDML
File size : 2.68 GiB
Duration : 1h 29mn
Overall bit rate : 4 286 Kbps
Movie name : Lebanon (2009) - Ripped by ELiTE
Writing application : VirtualDubMod 1.5.10.2 (build 2540/release)
Writing library : VirtualDubMod build 2540/release
Copyright : HQSource.org

Video
ID : 0
Format : MPEG-4 Visual
Format profile : Advanced Simple@L5
Format settings, BVOP : Yes
Format settings, QPel : No
Format settings, GMC : No warppoints
Format settings, Matrix : Custom
Codec ID : XVID
Codec ID/Hint : XviD
Duration : 1h 29mn
Bit rate : 3 635 Kbps
Width : 1 280 pixels
Height : 688 pixels
Display aspect ratio : 1.860
Frame rate : 23.976 fps
Color space : YUV
Chroma subsampling : 4:2:0
Bit depth : 8 bits
Scan type : Progressive
Compression mode : Lossy
Bits/(Pixel*Frame) : 0.172
Stream size : 2.27 GiB (85%)
Writing library : XviD 1.2.1 (UTC 2008-12-04)

Audio
ID : 1
Format : AC-3
Format/Info : Audio Coding 3
Mode extension : CM (complete main)
Codec ID : 2000
Duration : 1h 29mn
Bit rate mode : Constant
Bit rate : 640 Kbps
Channel(s) : 6 channels
Channel positions : Front: L C R, Side: L R, LFE
Sampling rate : 48.0 KHz
Bit depth : 16 bits
Compression mode : Lossy
Stream size : 410 MiB (15%)
Alignment : Split accross interleaves
Interleave, duration : 42 ms (1.00 video frame)
Interleave, preload duration : 500 ms


Liban / Lebanon (2009) PL.720p.BRRip.XviD.AC3-ELiTE | Lektor PL

Liban / Lebanon (2009) PL.720p.BRRip.XviD.AC3-ELiTE | Lektor PL Liban / Lebanon (2009) PL.720p.BRRip.XviD.AC3-ELiTE | Lektor PL

Liban / Lebanon (2009) PL.720p.BRRip.XviD.AC3-ELiTE | Lektor PL
Uwaga! Linki nie zakodowane tylko dla zarejestrowanych użytkowników!

Nie masz konta? Zarejestruj się za darmo!
----------------
Links are not encoded only for registered users only! Plese login or register!



Użytkownik VIP

MaRCiNJaCKUżytkownik

#1 | Dodany: 19 Styczeń 2013 22:34

thx

Informacje

Jeżeli chcesz skomentować artykuł musisz być zarejestrowany na stronie.