EXSite.pl - Portal ze wszystkim Mamy tutaj wszystko

NIE MASZ JESZCZE KONTA? ZAREJESTRUJ SIĘ ZA DARMO!   
Przypomnij hasło X

Żona na niby / Just Go With It (2011) PL.720p.BRrip.XviD.AC3-DD | Lektor PL

Dodał: ampatinis 23 Styczeń 2013 14:18


Żona na niby / Just Go With It (2011) PL.720p.BRrip.XviD.AC3-DD | Lektor PL

Żona na niby / Just Go With It (2011) PL.720p.BRrip.XviD.AC3-DD | Lektor PL

Żona na niby / Just Go With It (2011) PL.720p.BRrip.XviD.AC3-DD | Lektor PL

Produkcja: USA
Gatunek: Komedia rom.
Data premiery: 1 kwietnia 2011 (Polska), 8 lutego 2011 (świat)
Reżyseria: Dennis Dugan
Scenariusz: Timothy Dowling Allan Loeb

Główny bohater, doktor Patrick Maccabee (Adam Sandler), namawia pewną samotną matkę, aby udawała jego żonę. Ma to pomóc uwieść kobietę jego marze?


General

Complete name : Just.Go.With.It.2011.PL.720p.BRrip.XviD.AC3.avi

Format : Matroska

File size : 3.64 GiB

Duration : 1h 56mn

Overall bit rate : 4 478 Kbps

Encoded date : UTC 2011-07-02 08:11:17

Writing application : mkvmerge v4.4.0 ('Die Wiederkehr') built on Oct 31 2010 21:52:48

Writing library : libebml v1.0.0 + libmatroska v1.0.0



Video

ID : 1

Format : MPEG-4 Visual

Format profile : Advanced Simple@L5

Format settings, BVOP : Yes

Format settings, QPel : No

Format settings, GMC : No warppoints

Format settings, Matrix : Default (H.263)

Codec ID : XVID

Codec ID/Hint : XviD

Duration : 1h 56mn

Bit rate : 3 109 Kbps

Width : 1 280 pixels

Height : 688 pixels

Display aspect ratio : 1.860

Frame rate : 23.976 fps

Color space : YUV

Chroma subsampling : 4:2:0

Bit depth : 8 bits

Scan type : Progressive

Compression mode : Lossy

Bits/(Pixel*Frame) : 0.147

Stream size : 2.53 GiB (69%)

Writing library : XviD 1.2.1 (UTC 2008-12-04)



Audio #1

ID : 2

Format : AC-3

Format/Info : Audio Coding 3

Mode extension : CM (complete main)

Muxing mode : Header stripping

Codec ID : A_AC3

Duration : 1h 56mn

Bit rate mode : Constant

Bit rate : 640 Kbps

Channel(s) : 6 channels

Channel positions : Front: L C R, Side: L R, LFE

Sampling rate : 48.0 KHz

Bit depth : 16 bits

Compression mode : Lossy

Stream size : 533 MiB (14%)



Audio #2

ID : 3

Format : AC-3

Format/Info : Audio Coding 3

Mode extension : CM (complete main)

Muxing mode : Header stripping

Codec ID : A_AC3

Duration : 1h 56mn

Bit rate mode : Constant

Bit rate : 640 Kbps

Channel(s) : 6 channels

Channel positions : Front: L C R, Side: L R, LFE

Sampling rate : 48.0 KHz

Bit depth : 16 bits

Compression mode : Lossy

Stream size : 533 MiB (14%)


Żona na niby / Just Go With It (2011) PL.720p.BRrip.XviD.AC3-DD | Lektor PL

Żona na niby / Just Go With It (2011) PL.720p.BRrip.XviD.AC3-DD | Lektor PL Żona na niby / Just Go With It (2011) PL.720p.BRrip.XviD.AC3-DD | Lektor PL

Żona na niby / Just Go With It (2011) PL.720p.BRrip.XviD.AC3-DD | Lektor PL
Uwaga! Linki nie zakodowane tylko dla zarejestrowanych użytkowników!

Nie masz konta? Zarejestruj się za darmo!
----------------
Links are not encoded only for registered users only! Plese login or register!



Informacje

Jeżeli chcesz skomentować artykuł musisz być zarejestrowany na stronie.