EXSite.pl - Portal ze wszystkim Mamy tutaj wszystko

NIE MASZ JESZCZE KONTA? ZAREJESTRUJ SIĘ ZA DARMO!   
Przypomnij hasło X

Ali (2001) PL.720p.BRRip.XviD.AC3-DustnWind

Dodał: ampatinis 27 Styczeń 2013 19:56


Ali (2001) PL.720p.BRRip.XviD.AC3-DustnWind

Ali (2001) PL.720p.BRRip.XviD.AC3-DustnWind

Ali (2001) PL.720p.BRRip.XviD.AC3-DustnWind

Produkcja: USA
Gatunek: Biograficzny, Dramat, Obyczajowy, Sportowy
Data premiery: 7 maja 2004 (Polska); 11 grudnia 2001 (świat)
Reżyseria: Michael Mann
Scenariusz: Eric Roth, Michael Mann
Muzyka: Martin Tillman, Kenneth \'Babyface\' Edmonds
Czas trwania: 2h 36mn minut

Film biograficzny. Cassius Clay był wygadaną, szybko kroczącą do sukcesu kulą ognia w ringu oraz poza nim, kiedy zaczynał karierę bokserską w latach sześćdziesiątych. Zmienił swoje imię i stał się Muhammadem Ali. Mistrz, lider, ulubieniec wielu. Szykując się do roli Will Smith przeszedł kilkumiesięczny trening bokserski.


General
Format : AVI
Format/Info : Audio Video Interleave
Format profile : OpenDML
File size : 3.92 GiB
Duration : 2h 36mn
Overall bit rate : 3 583 Kbps
Writing application : VirtualDubMod 1.5.10.2 (build 2540/release)
Writing library : VirtualDubMod build 2540/release

Video
ID : 0
Format : MPEG-4 Visual
Format profile : Advanced Simple@L5
Format settings, BVOP : Yes
Format settings, QPel : No
Format settings, GMC : No warppoints
Format settings, Matrix : Default (MPEG)
Codec ID : XVID
Codec ID/Hint : XviD
Duration : 2h 36mn
Bit rate : 3 189 Kbps
Width : 1 280 pixels
Height : 544 pixels
Display aspect ratio : 2.35:1
Frame rate : 23.976 fps
Color space : YUV
Chroma subsampling : 4:2:0
Bit depth : 8 bits
Scan type : Progressive
Compression mode : Lossy
Bits/(Pixel*Frame) : 0.191
Stream size : 3.49 GiB (89%)
Writing library : XviD 1.2.1 (UTC 2008-12-04)

Audio
ID : 1
Format : AC-3
Format/Info : Audio Coding 3
Mode extension : CM (complete main)
Codec ID : 2000
Duration : 2h 36mn
Bit rate mode : Constant
Bit rate : 384 Kbps
Channel(s) : 6 channels
Channel positions : Front: L C R, Side: L R, LFE
Sampling rate : 48.0 KHz
Bit depth : 16 bits
Compression mode : Lossy
Video delay : 900ms
Stream size : 430 MiB (11%)
Alignment : Split accross interleaves
Interleave, duration : 42 ms (1.00 video frame)
Interleave, preload duration : 500 ms


Ali (2001) PL.720p.BRRip.XviD.AC3-DustnWind

Ali (2001) PL.720p.BRRip.XviD.AC3-DustnWind Ali (2001) PL.720p.BRRip.XviD.AC3-DustnWind

Ali (2001) PL.720p.BRRip.XviD.AC3-DustnWind
Uwaga! Linki nie zakodowane tylko dla zarejestrowanych użytkowników!

Nie masz konta? Zarejestruj się za darmo!
----------------
Links are not encoded only for registered users only! Plese login or register!



Użytkownik VIP

MaRCiNJaCKUżytkownik

#1 | Dodany: 27 Styczeń 2013 20:01

ok

Informacje

Jeżeli chcesz skomentować artykuł musisz być zarejestrowany na stronie.