EXSite.pl - Portal ze wszystkim Mamy tutaj wszystko

NIE MASZ JESZCZE KONTA? ZAREJESTRUJ SIĘ ZA DARMO!   
Przypomnij hasło X

Mamma Mia! (2008) PL.720p.BRRip.XviD.AC3-DustnWind | Lektor PL

Dodał: ampatinis 27 Styczeń 2013 20:09


Mamma Mia! (2008) PL.720p.BRRip.XviD.AC3-DustnWind | Lektor PL

Mamma Mia! (2008) PL.720p.BRRip.XviD.AC3-DustnWind | Lektor PL

Mamma Mia! (2008) PL.720p.BRRip.XviD.AC3-DustnWind | Lektor PL

Reżyseria: Phyllida Lloyd
Scenariusz: Catherine Johnson
Premiera: 29 sierpnia 2008 (Polska), 30 czerwca 2008 (świat)
Release Date : 2011-08-10
Produkcja: Niemcy, USA
Gatunek: Musical, Komedia rom.
Czas trwania: 110 min

Kinowa wersja musicalu z 27 piosenkami ABBY. Główną bohaterką 'Mamma Mia!' jest dziewczyna wychowana samotnie przez matkę na jednej z greckich wysp. Dziewczyna nigdy nie dowiedziała się kto jest jej ojcem. Sama znalazła trzech mężczyzn, którzy mogliby nimi być i postanawia zaprosić ich na swoje wesele. Meryl Streep wcieli się w rolę mamy przyszłej panny młodej.


General
Rel Date : 2011-08-10
Format : AVI
Format/Info : Audio Video Interleave
Format profile : OpenDML
File size : 2.85 GiB
Duration : 1h 48mn
Overall bit rate : 3 750 Kbps
Writing application : VirtualDubMod 1.5.10.2 (build 2540/release)
Writing library : VirtualDubMod build 2540/release

Video
ID : 0
Format : MPEG-4 Visual
Format profile : Advanced Simple@L5
Format settings, BVOP : 1
Format settings, QPel : No
Format settings, GMC : No warppoints
Format settings, Matrix : Default (MPEG)
Codec ID : XVID
Codec ID/Hint : XviD
Duration : 1h 48mn
Bit rate : 3 356 Kbps
Width : 1 280 pixels
Height : 532 pixels
Display aspect ratio : 2.40:1
Frame rate : 23.976 fps
Color space : YUV
Chroma subsampling : 4:2:0
Bit depth : 8 bits
Scan type : Progressive
Compression mode : Lossy
Bits/(Pixel*Frame) : 0.206
Stream size : 2.55 GiB (89%)
Writing library : XviD 1.2.1 (UTC 2008-12-04)

Audio
ID : 1
Format : AC-3
Format/Info : Audio Coding 3
Mode extension : CM (complete main)
Codec ID : 2000
Duration : 1h 48mn
Bit rate mode : Constant
Bit rate : 384 Kbps
Channel(s) : 6 channels
Channel positions : Front: L C R, Side: L R, LFE
Sampling rate : 48.0 KHz
Bit depth : 16 bits
Compression mode : Lossy
Stream size : 298 MiB (10%)
Alignment : Split accross interleaves
Interleave, duration : 42 ms (1.00 video frame)
Interleave, preload duration : 500 ms


Mamma Mia! (2008) PL.720p.BRRip.XviD.AC3-DustnWind | Lektor PL

Mamma Mia! (2008) PL.720p.BRRip.XviD.AC3-DustnWind | Lektor PL Mamma Mia! (2008) PL.720p.BRRip.XviD.AC3-DustnWind | Lektor PL

Mamma Mia! (2008) PL.720p.BRRip.XviD.AC3-DustnWind | Lektor PL
Uwaga! Linki nie zakodowane tylko dla zarejestrowanych użytkowników!

Nie masz konta? Zarejestruj się za darmo!
----------------
Links are not encoded only for registered users only! Plese login or register!



Użytkownik VIP

wwwUżytkownik

#1 | Dodany: 27 Styczeń 2013 20:36

poprosze na turbobita,z gory dziekuje :)

Informacje

Jeżeli chcesz skomentować artykuł musisz być zarejestrowany na stronie.