EXSite.pl - Portal ze wszystkim Mamy tutaj wszystko

NIE MASZ JESZCZE KONTA? ZAREJESTRUJ SIĘ ZA DARMO!   
Przypomnij hasło X

Zostać legendą / Legendary (2010) PL.720p.HDTV.XviD-TVM4iN | Lektor PL

Dodał: ampatinis 4 Luty 2013 17:59


Zostać legendą / Legendary (2010) PL.720p.HDTV.XviD-TVM4iN | Lektor PL

Zostać legendą / Legendary (2010) PL.720p.HDTV.XviD-TVM4iN | Lektor PL

Zostać legendą / Legendary (2010) PL.720p.HDTV.XviD-TVM4iN | Lektor PL

Produkcja: USA
Gatunek: Dramat, Sportowy
Data premiery: 9 września 2010 (świat)
Reżyseria: Mel Damski
Scenariusz: John Posey
Muzyka: James Raymond
Czas trwania: 1 godz. 47 min. minut

Nastoletni mól książkowy Cal podejmuje decyzję o wstąpieniu do kółka zapaśniczego w swojej szkole. Ojciec chłopaka był zapaśniczym mistrzem stanu, zginął jednak przed laty w wypadku samochodowym. Brat Cala również odnosił sukcesy w tej dyscyplinie.


Format : AVI
Format/Info : Audio Video Interleave
Format profile : OpenDML
File size : 2.62 GiB
Duration : 1h 42mn
Overall bit rate : 3 650 Kbps
Writing application : VirtualDubMod 1.5.10.2 (build 2540/release)
Writing library : VirtualDubMod build 2540/release

Video
ID : 0
Format : MPEG-4 Visual
Format profile : Advanced Simple@L5
Format settings, BVOP : 2
Format settings, QPel : No
Format settings, GMC : No warppoints
Format settings, Matrix : Default (MPEG)
Codec ID : XVID
Codec ID/Hint : XviD
Duration : 1h 42mn
Bit rate : 3 446 Kbps
Width : 1 280 pixels
Height : 720 pixels
Display aspect ratio : 16:9
Frame rate : 25.000 fps
Color space : YUV
Chroma subsampling : 4:2:0
Bit depth : 8 bits
Scan type : Progressive
Compression mode : Lossy
Bits/(Pixel*Frame) : 0.150
Stream size : 2.47 GiB (94%)
Writing library : XviD 1.2.1 (UTC 2008-12-04)

Audio
ID : 1
Format : AC-3
Format/Info : Audio Coding 3
Mode extension : CM (complete main)
Codec ID : 2000
Duration : 1h 42mn
Bit rate mode : Constant
Bit rate : 192 Kbps
Channel(s) : 2 channels
Channel positions : Front: L R
Sampling rate : 48.0 KHz
Bit depth : 16 bits
Compression mode : Lossy
Delay relative to video : 200ms
Stream size : 141 MiB (5%)
Alignment : Split accross interleaves
Interleave, duration : 40 ms (1.00 video frame)
Interleave, preload duration : 500 ms



Zostać legendą / Legendary (2010) PL.720p.HDTV.XviD-TVM4iN | Lektor PL
Uwaga! Linki nie zakodowane tylko dla zarejestrowanych użytkowników!

Nie masz konta? Zarejestruj się za darmo!
----------------
Links are not encoded only for registered users only! Plese login or register!



Informacje

Jeżeli chcesz skomentować artykuł musisz być zarejestrowany na stronie.