EXSite.pl - Portal ze wszystkim Mamy tutaj wszystko

NIE MASZ JESZCZE KONTA? ZAREJESTRUJ SIĘ ZA DARMO!   
Przypomnij hasło X

Bez Litości / I Spit on Your Grave (2010) UNRATED.PL.720p.BRRip.XviD.AC3-DustnWind | Lektor PL

Dodał: ampatinis 4 Luty 2013 18:01


Bez Litości / I Spit on Your Grave (2010) UNRATED.PL.720p.BRRip.XviD.AC3-DustnWind | Lektor PL

Bez Litości / I Spit on Your Grave (2010) UNRATED.PL.720p.BRRip.XviD.AC3-DustnWind | Lektor PL

Bez Litości / I Spit on Your Grave (2010) UNRATED.PL.720p.BRRip.XviD.AC3-DustnWind | Lektor PL

Produkcja: USA
Gatunek: Horror
Data premiery: 1 maja 2010 (świat)
Reżyseria: Steven R. Monroe
Scenariusz: Stuart Morse, Meir Zarchi
Muzyka: Corey A. Jackson

Młoda, pociągająca dziewczyna przyjeżdża do domku w malowniczej okolicy, by napisać książkę. Początkowo sceneria wywołuje w niej uczucie spełnienia - jezioro, cisza i spokój, czego więc chcieć więcej? Sytuacja zmienia sie diametralnie, kiedy poznaje lekko ułomnego Matthew'a (Chad Lindberg), który przychodzi naprawić jej klozet. Ta daje mu buziaka, w ramach podziękowania za wykonaną robotę. Chłopak podniecony chwali się okolicznym lumpom, którzy knują zbrodniczą intrygę... Zamierzają zgwałcić bezbronną dziewczynę. W roli głównej Sarah Butler.


Format : AVI
Format/Info : Audio Video Interleave
Format profile : OpenDML
File size : 3.01 GiB
Duration : 1h 48mn
Overall bit rate : 3 982 Kbps
Writing application : VirtualDubMod 1.5.10.2 (build 2540/release)
Writing library : VirtualDubMod build 2540/release

Video
ID : 0
Format : MPEG-4 Visual
Format profile : Advanced Simple@L5
Format settings, BVOP : 1
Format settings, QPel : No
Format settings, GMC : No warppoints
Format settings, Matrix : Default (MPEG)
Codec ID : XVID
Codec ID/Hint : XviD
Duration : 1h 48mn
Bit rate : 3 331 Kbps
Width : 1 280 pixels
Height : 544 pixels
Display aspect ratio : 2.35:1
Frame rate : 23.976 fps
Color space : YUV
Chroma subsampling : 4:2:0
Bit depth : 8 bits
Scan type : Progressive
Compression mode : Lossy
Bits/(Pixel*Frame) : 0.200
Stream size : 2.52 GiB (84%)
Writing library : XviD 62

Audio
ID : 1
Format : AC-3
Format/Info : Audio Coding 3
Mode extension : CM (complete main)
Codec ID : 2000
Duration : 1h 48mn
Bit rate mode : Constant
Bit rate : 640 Kbps
Channel(s) : 6 channels
Channel positions : Front: L C R, Side: L R, LFE
Sampling rate : 48.0 KHz
Bit depth : 16 bits
Compression mode : Lossy
Stream size : 495 MiB (16%)
Alignment : Split accross interleaves
Interleave, duration : 42 ms (1.00 video frame)
Interleave, preload duration : 500 ms



Bez Litości / I Spit on Your Grave (2010) UNRATED.PL.720p.BRRip.XviD.AC3-DustnWind | Lektor PL
Uwaga! Linki nie zakodowane tylko dla zarejestrowanych użytkowników!

Nie masz konta? Zarejestruj się za darmo!
----------------
Links are not encoded only for registered users only! Plese login or register!



Użytkownik VIP

MaRCiNJaCKUżytkownik

#1 | Dodany: 4 Luty 2013 18:51

thx
Użytkownik VIP

YOMATAUploader

#2 | Dodany: 4 Luty 2013 18:58




Bez litości / I Spit on Your Grave (2010)

PL.BRRip.XViD | LEKTOR PL

### DANE TECHNICZNE ###

Format : AVI at 943 Kb/s
Length : 699 MB for 1h 43 min. 34s 560ms

Video #0 : MPEG-4 Visual at 803 Kb/s
Aspect : 720 x 304 (2.368) at 25.000 fps

Audio #0 : MPEG Audio at 128 Kb/s
Infos : 2 kanały, 48,0 KHz

TYLKO 1 LINK (BEZ KOMPRESJI,ściągasz i oglądasz) ok

Uwaga! Linki nie zakodowane tylko dla zarejestrowanych użytkowników!

Nie masz konta? Zarejestruj się za darmo!
----------------
Links are not encoded only for registered users only! Plese login or register!


Uwaga! Linki nie zakodowane tylko dla zarejestrowanych użytkowników!

Nie masz konta? Zarejestruj się za darmo!
----------------
Links are not encoded only for registered users only! Plese login or register!


Uwaga! Linki nie zakodowane tylko dla zarejestrowanych użytkowników!

Nie masz konta? Zarejestruj się za darmo!
----------------
Links are not encoded only for registered users only! Plese login or register!


Uwaga! Linki nie zakodowane tylko dla zarejestrowanych użytkowników!

Nie masz konta? Zarejestruj się za darmo!
----------------
Links are not encoded only for registered users only! Plese login or register!






Użytkownik VIP

zuberek81Użytkownik

#3 | Dodany: 4 Luty 2013 20:35

Pluję na twój grób!!!
ŻUB3R

------------------------------------------

Dobrze posiedzieć przy Żubrze
Użytkownik VIP

psychoslupskUżytkownik

#4 | Dodany: 4 Luty 2013 21:19

Bez litości / I Spit on Your Grave (2010) PL.BRRip.XViD

Dane Techniczne
Format : AVI at 943 Kb/s
Length : 699 MB for 1h 43 min. 34s 560ms

Video #0 : MPEG-4 Visual at 803 Kb/s
Aspect : 720 x 304 (2.368) at 25.000 fps

Audio #0 : MPEG Audio at 128 Kb/s
Infos : 2 kanały, 48,0 KHz


Opis Uploadu
Wielkość całości: 699 MB
Kompresja: BRAK
Zawartość uploadu: .avi
Wersja Językowa: Lektor PL
Password:BRAK
Dane Naprawcze:brak


HellShare
Uwaga! Linki nie zakodowane tylko dla zarejestrowanych użytkowników!

Nie masz konta? Zarejestruj się za darmo!
----------------
Links are not encoded only for registered users only! Plese login or register!


Catshare
Uwaga! Linki nie zakodowane tylko dla zarejestrowanych użytkowników!

Nie masz konta? Zarejestruj się za darmo!
----------------
Links are not encoded only for registered users only! Plese login or register!


Egofiles
Uwaga! Linki nie zakodowane tylko dla zarejestrowanych użytkowników!

Nie masz konta? Zarejestruj się za darmo!
----------------
Links are not encoded only for registered users only! Plese login or register!


Creafile
Uwaga! Linki nie zakodowane tylko dla zarejestrowanych użytkowników!

Nie masz konta? Zarejestruj się za darmo!
----------------
Links are not encoded only for registered users only! Plese login or register!


FileParadox
Uwaga! Linki nie zakodowane tylko dla zarejestrowanych użytkowników!

Nie masz konta? Zarejestruj się za darmo!
----------------
Links are not encoded only for registered users only! Plese login or register!

Wszystkie moje wrzuty w komentarzach
http://www.exsite.pl/index.php?do=lastcomments&userid=1319985

Użytkownik VIP

akira5VIP

#5 | Dodany: 16 Wrzesień 2013 20:20

dzieki. dobry film w super jakosci :)

Informacje

Jeżeli chcesz skomentować artykuł musisz być zarejestrowany na stronie.