EXSite.pl - Portal ze wszystkim Mamy tutaj wszystko

NIE MASZ JESZCZE KONTA? ZAREJESTRUJ SIĘ ZA DARMO!   
Przypomnij hasło X

Kocha, lubi, szanuje / Crazy Stupid Love (2011) PL.720p.BDRip.XviD.AC3-ELiTE | Lektor PL

Dodał: ampatinis 6 Luty 2013 17:41


Kocha, lubi, szanuje / Crazy Stupid Love (2011) PL.720p.BDRip.XviD.AC3-ELiTE | Lektor PL

Kocha, lubi, szanuje / Crazy Stupid Love (2011) PL.720p.BDRip.XviD.AC3-ELiTE | Lektor PL

Kocha, lubi, szanuje / Crazy Stupid Love (2011) PL.720p.BDRip.XviD.AC3-ELiTE | Lektor PL

Dystrybucja: Warner Bros. Entertainment Polska Sp. z o. o.
Gatunek: Dramat, Komedia, Romans
Data premiery (świat): 28 lipca 2011
Data premiery (Polska): 2 września 2011
Reżyseria: Glenn Ficarra, John Requa
Scenariusz: Dan Fogelman
Zdjęcia: Andrew Dunn
Muzyka: Christophe Beck
Czas trwania: 1 godz. 58 min.

W wieku czterdziestu kilku lat przesadnie poprawny Cal Weaver (Steve Carell) wiedzie idealne życie — ma dobrą pracę, ładny dom, udane dzieci i szkolną miłość za żonę. Ale kiedy dowiaduje się, że jego druga połowa, Emily (Julianne Moore), zdradziła go i chce się rozwieść, jego „wymarzone” życie rozpada się na kawałki. Co gorsza, w dzisiejszym świecie, w którym królują single, Cal, który na randce nie był od lat, staje się uosobieniem niezgrabności. Nieszczęsnego Cala, spędzającego wolne wieczory na samotnych rozmyślaniach w pobliskim pubie, wybiera sobie na partnera i ucznia przystojny podrywacz po trzydziestce , Jacob Palmer (Ryan Gosling). Jacob stara się pomóc Calowi pogodzić się rozstaniem i rozpocząć nowe życie, więc ukazuje mu liczne możliwości, jakie się przed nim otwierają: zalotne kobiety, męskie wypady na drinka i wyczucie stylu, jakiego nie można wyrobić sobie, robiąc zakupy w sieciówkach. Cal i Emily to nie jedyne postaci poszukujące miłości tam, gdzie trudno na nią trafić. Trzynastoletni syn Cala — Robbie — szaleje za siedemnastoletnią opiekunką do dzieci, Jessicą, która z kolei na obiekt westchnie? wybrała sobie Cala. A ten, mimo całej przemiany i licznych podbojów, nie może w swoim sercu zmienić tej jednej rzeczy, która ciągle prowadzi go z powrotem w to samo miejsce, w którym rozpoczęła się jego podróż.


Format : AVI
Format/Info : Audio Video Interleave
Format profile : OpenDML
File size : 3.47 GiB
Duration : 1h 58mn
Overall bit rate : 4 202 Kbps
Movie name : Crazy Stupid Love 2011
Director : Ripped by ELiTE
Writing application : VirtualDubMod 1.5.10.2 (build 2540/release)
Writing library : VirtualDubMod build 2540/release
Copyright : HQSource.org

Video
ID : 0
Format : MPEG-4 Visual
Format profile : Advanced Simple@L5
Format settings, BVOP : 1
Format settings, QPel : No
Format settings, GMC : No warppoints
Format settings, Matrix : Custom
Codec ID : XVID
Codec ID/Hint : XviD
Duration : 1h 58mn
Bit rate : 3 552 Kbps
Width : 1 280 pixels
Height : 534 pixels
Display aspect ratio : 2.40:1
Frame rate : 23.976 fps
Color space : YUV
Chroma subsampling : 4:2:0
Bit depth : 8 bits
Scan type : Progressive
Compression mode : Lossy
Bits/(Pixel*Frame) : 0.217
Stream size : 2.93 GiB (85%)
Writing library : XviD 1.2.1 (UTC 2008-12-04)

Audio
ID : 1
Format : AC-3
Format/Info : Audio Coding 3
Mode extension : CM (complete main)
Codec ID : 2000
Duration : 1h 58mn
Bit rate mode : Constant
Bit rate : 640 Kbps
Channel(s) : 6 channels
Channel positions : Front: L C R, Side: L R, LFE
Sampling rate : 48.0 KHz
Bit depth : 16 bits
Compression mode : Lossy
Stream size : 541 MiB (15%)
Alignment : Split accross interleaves
Interleave, duration : 42 ms (1.00 video frame)
Interleave, preload duration : 500 ms


Kocha, lubi, szanuje / Crazy Stupid Love (2011) PL.720p.BDRip.XviD.AC3-ELiTE | Lektor PL

Kocha, lubi, szanuje / Crazy Stupid Love (2011) PL.720p.BDRip.XviD.AC3-ELiTE | Lektor PL Kocha, lubi, szanuje / Crazy Stupid Love (2011) PL.720p.BDRip.XviD.AC3-ELiTE | Lektor PL

Kocha, lubi, szanuje / Crazy Stupid Love (2011) PL.720p.BDRip.XviD.AC3-ELiTE | Lektor PL
Uwaga! Linki nie zakodowane tylko dla zarejestrowanych użytkowników!

Nie masz konta? Zarejestruj się za darmo!
----------------
Links are not encoded only for registered users only! Plese login or register!



Informacje

Jeżeli chcesz skomentować artykuł musisz być zarejestrowany na stronie.