EXSite.pl - Portal ze wszystkim Mamy tutaj wszystko

NIE MASZ JESZCZE KONTA? ZAREJESTRUJ SIĘ ZA DARMO!   
Przypomnij hasło X

Zawód gangster / Rise of the Footsoldier (2007) PL.720p.BDRip.XviD.AC3-ELiTE | Lektor PL

Dodał: ampatinis 7 Luty 2013 22:13


Zawód gangster / Rise of the Footsoldier (2007) PL.720p.BDRip.XviD.AC3-ELiTE | Lektor PL

Zawód gangster / Rise of the Footsoldier (2007) PL.720p.BDRip.XviD.AC3-ELiTE | Lektor PL

Zawód gangster / Rise of the Footsoldier (2007) PL.720p.BDRip.XviD.AC3-ELiTE | Lektor PL

Reżyseria: Julian Gilbey
Scenariusz: Ki-duk Kim, Jonah Hill
Premiera: 7 września 2007 (świat)
Gatunek: Biograficzny, Kryminał
Czas trwania: 1 godz. 59 min.

Film przedstawia historię życia Carltona Leacha ? jednego z najbardziej znanych gangsterów angielskich. Leach, początkowo chuligan piłkarski został członkiem gangu, który dokonywał spustosze? oraz aktów wandalizmu m. in. w Londynie oraz Essex na przełomie lat osiemdziesiątych oraz dziewięćdziesiątych XX wieku. W filmie przedstawione zostały kolejne etapy jego burzliwego życia: stadionowy chuligan, następnie bramkarz w klubie oraz w ko?cu jeden z budzących największy strach oraz respekt kryminalistów w kraju.


General
Complete name :
Rise.Of.The.Footsoldier.2007.PL.720p.BDRip.XviD.AC3-ELiTE.avi
Format : AVI
Format/Info : Audio Video Interleave
Format profile : OpenDML
File size : 3.72 GiB
Duration : 1h 59mn
Overall bit rate : 4 472 Kbps
Movie name : Rise.Of.The.Footsoldier.2007.PL.720p.BDRip.XviD.AC3-ELiTE
Writing application : AVI-Mux GUI 1.17.8, Aug 30 2008 12:36:58

Video
ID : 0
Format : MPEG-4 Visual
Format profile : Advanced Simple@L5
Format settings, BVOP : Yes
Format settings, QPel : No
Format settings, GMC : No warppoints
Format settings, Matrix : Custom
Codec ID : XVID
Codec ID/Hint : XviD
Duration : 1h 59mn
Bit rate : 4 018 Kbps
Width : 1 280 pixels
Height : 688 pixels
Display aspect ratio : 1.860
Frame rate : 23.976 fps
Original frame rate : 24.000 fps
Color space : YUV
Chroma subsampling : 4:2:0
Bit depth : 8 bits
Scan type : Progressive
Bits/(Pixel*Frame) : 0.190
Stream size : 3.34 GiB (90%)
Writing library : XviD 1.2.1 (UTC 2008-12-04)

Audio
ID : 1
Format : AC-3
Format/Info : Audio Coding 3
Mode extension : CM (complete main)
Codec ID : 2000
Duration : 1h 59mn
Bit rate mode : Constant
Bit rate : 448 Kbps
Channel(s) : 6 channels
Channel positions : Front: L C R, Side: L R, LFE
Sampling rate : 48.0 KHz
Bit depth : 16 bits
Stream size : 381 MiB (10%)
Alignment : Aligned on interleaves
Interleave, duration : 64 ms (1.54 video frames)
Interleave, preload duration : 192 ms


Zawód gangster / Rise of the Footsoldier (2007) PL.720p.BDRip.XviD.AC3-ELiTE | Lektor PL

Zawód gangster / Rise of the Footsoldier (2007) PL.720p.BDRip.XviD.AC3-ELiTE | Lektor PL Zawód gangster / Rise of the Footsoldier (2007) PL.720p.BDRip.XviD.AC3-ELiTE | Lektor PL

Zawód gangster / Rise of the Footsoldier (2007) PL.720p.BDRip.XviD.AC3-ELiTE | Lektor PL
Uwaga! Linki nie zakodowane tylko dla zarejestrowanych użytkowników!

Nie masz konta? Zarejestruj się za darmo!
----------------
Links are not encoded only for registered users only! Plese login or register!



Użytkownik VIP

MaRCiNJaCKUżytkownik

#1 | Dodany: 7 Luty 2013 22:16

thx

Informacje

Jeżeli chcesz skomentować artykuł musisz być zarejestrowany na stronie.