EXSite.pl - Portal ze wszystkim Mamy tutaj wszystko

NIE MASZ JESZCZE KONTA? ZAREJESTRUJ SIĘ ZA DARMO!   
Przypomnij hasło X

Colombiana (2011) PLSUBBED.720p.BRRip.XViD.AC3-NOiSE | NAPISY PL

Dodał: ampatinis 9 Luty 2013 15:27


Colombiana (2011) PLSUBBED.720p.BRRip.XViD.AC3-NOiSE | NAPISY PL

Colombiana (2011) PLSUBBED.720p.BRRip.XViD.AC3-NOiSE | NAPISY PL

Colombiana (2011) PLSUBBED.720p.BRRip.XViD.AC3-NOiSE | NAPISY PL

Reżyseria: Olivier Megaton
Scenariusz: Gerard Butler, Whoopi Goldberg
Premiera: 2 września 2011 (Polska), 26 sierpnia 2011 (świat)
Produkcja: Francja, USA
Gatunek: Akcja
Czas trwania: 1 godz. 47 min.

Zoe Saldana („Avatar” i „Star Trek”) w filmie reżysera „Transportera 3”! Cataleya Restrepo jako mała dziewczynka była świadkiem brutalnego morderstwa rodziców. Teraz, kiedy jest już dorosła, staje się zawodowym zabójcą. Jest piękna, silna i zdeterminowana. Jako płatna morderczyni, z zimną krwią wykonuje kolejne egzekucje. Obsesyjnie tropi i eliminuje osoby powiązane ze śmiercią swoich rodziców. Z każdym kolejnym zabójstwem Cataleya zbliża się do upragnionego celu – zabicia gangstera, który był odpowiedzialny za zamordowanie najbliższych. Film powstał na podstawie scenariusza Luca Bessona.


General
Complete name : Colombiana (2011) BLURRED Subbed.PL.720p.BRRip.XViD.AC3-NOiSE.avi
Format : AVI
Format/Info : Audio Video Interleave
Format profile : OpenDML
File size : 2.86 GiB
Duration : 1h 47mn
Overall bit rate : 3 799 Kbps
Writing application : VirtualDubMod 1.5.10.2 (build 2542/release)
Writing library : VirtualDubMod build 2542/release

Video
ID : 0
Format : MPEG-4 Visual
Format profile : Advanced Simple@L5
Format settings, BVOP : Yes
Format settings, QPel : No
Format settings, GMC : No warppoints
Format settings, Matrix : Default (H.263)
Codec ID : XVID
Codec ID/Hint : XviD
Duration : 1h 47mn
Bit rate : 3 594 Kbps
Width : 1 280 pixels
Height : 524 pixels
Display aspect ratio : 2.40:1
Frame rate : 29.970 fps
Color space : YUV
Chroma subsampling : 4:2:0
Bit depth : 8 bits
Scan type : Progressive
Compression mode : Lossy
Bits/(Pixel*Frame) : 0.179
Stream size : 2.71 GiB (95%)
Writing library : XviD 58

Audio
ID : 1
Format : AC-3
Format/Info : Audio Coding 3
Mode extension : CM (complete main)
Codec ID : 2000
Duration : 1h 47mn
Bit rate mode : Constant
Bit rate : 192 Kbps
Channel(s) : 2 channels
Channel positions : Front: L R
Sampling rate : 48.0 KHz
Bit depth : 16 bits
Compression mode : Lossy
Stream size : 148 MiB (5%)
Alignment : Aligned on interleaves
Interleave, duration : 33 ms (1.00 video frame)
Interleave, preload duration : 512 ms


Colombiana (2011) PLSUBBED.720p.BRRip.XViD.AC3-NOiSE | NAPISY PL

Colombiana (2011) PLSUBBED.720p.BRRip.XViD.AC3-NOiSE | NAPISY PL Colombiana (2011) PLSUBBED.720p.BRRip.XViD.AC3-NOiSE | NAPISY PL

Colombiana (2011) PLSUBBED.720p.BRRip.XViD.AC3-NOiSE | NAPISY PL
Uwaga! Linki nie zakodowane tylko dla zarejestrowanych użytkowników!

Nie masz konta? Zarejestruj się za darmo!
----------------
Links are not encoded only for registered users only! Plese login or register!



Użytkownik VIP

ampatinisUżytkownik

#1 | Dodany: 9 Luty 2013 15:28

Za zgodą Noise4UP
Użytkownik VIP

T77Super Uploader

#2 | Dodany: 10 Luty 2013 16:15


Colombiana (2011) BLURRED Subbed.PL.720p.BRRip.XViD.AC3-NOiSE / Napisy PL


Dane Techniczne:

Video
ID : 0
Format : MPEG-4 Visual
Format profile : Advanced Simple@L5
Format settings, Matrix : Default (H.263)
Codec ID : XVID
Duration : 1h 47mn
Bit rate : 3 594 Kbps
Width : 1 280 pixels
Height : 524 pixels
Frame rate : 29.970 fps

Audio
ID : 1
Format : AC-3
Format/Info : Audio Coding 3
Duration : 1h 47mn
Bit rate : 192 Kbps
Channel(s) : 2 channels
Sampling rate : 48.0 KHz



EgoFiles.com
Uwaga! Linki nie zakodowane tylko dla zarejestrowanych użytkowników!

Nie masz konta? Zarejestruj się za darmo!
----------------
Links are not encoded only for registered users only! Plese login or register!


Tylko 1 Link / Lub / Linki zamienne / Można Pobierać na Przemian!

CatShare.net
Uwaga! Linki nie zakodowane tylko dla zarejestrowanych użytkowników!

Nie masz konta? Zarejestruj się za darmo!
----------------
Links are not encoded only for registered users only! Plese login or register!





Użytkownik VIP

uploaVIP

#3 | Dodany: 24 Grudzień 2013 15:13


Colombiana (2011) PL.DVDRip.XviD-B89 / LEKTOR PL


Dane Techniczne i Opis uploadu:

Format            : AVI at 948 Kb/s
Length            : 701 MB for 1h 43 min. 29s 240ms

Video #0          : MPEG-4 Visual at 826 Kb/s
Aspect            : 640 x 272 (2.353) at 25.000 fps

Audio #0          : MPEG Audio at 112 Kb/s
Infos             : 2 kanały, 44,1 KHz

Zawartość Uploadu: plik .avi
Rodzaj Kompresji : brak
Dane naprawcze: brak


Download:

Uwaga! Linki nie zakodowane tylko dla zarejestrowanych użytkowników!

Nie masz konta? Zarejestruj się za darmo!
----------------
Links are not encoded only for registered users only! Plese login or register!

Informacje

Jeżeli chcesz skomentować artykuł musisz być zarejestrowany na stronie.