EXSite.pl - Portal ze wszystkim Mamy tutaj wszystko

NIE MASZ JESZCZE KONTA? ZAREJESTRUJ SIĘ ZA DARMO!   
Przypomnij hasło X

Iluzjonista / The Illusionist (2006) PL.720p.BRRip.XviD.AC3-SJ

Dodał: ampatinis 22 Luty 2013 22:42


Iluzjonista / The Illusionist (2006) PL.720p.BRRip.XviD.AC3-SJ

Iluzjonista / The Illusionist (2006) PL.720p.BRRip.XviD.AC3-SJ

Iluzjonista / The Illusionist (2006) PL.720p.BRRip.XviD.AC3-SJ

Reżyseria: Neil Burger
Scenariusz: Neil Burger
Premiera: 30 marca 2007 (Polska), 27 kwietnia 2006 (świat)
Produkcja: Czechy, USA
Gatunek: Fantasy, Kostiumowy
Czas trwania: 110 min

Eisenheim (Edward Norton), człowiek znikąd wystawia w Wiedniu zdumiewające magiczne spektakle. Swoją pracą przykuwa uwagę pretendenta do tronu – Księcia Leopolda. Pewien, że iluzjonista jest jedynie mistrzem konfabulacji i oszustem, Książę zjawia się na jednym z przedstawie? mężczyzny celem zdemaskowania jego występu. By osiągnąć cel wysyła na scenę swoją narzeczoną Sophie (Jessica Biel: "Siódme niebo", "Elizabethtown"). Rozpoczyna się wielka potyczka pomiędzy iluzją a rzeczywistością. Czy talent magika wystarczy by przekroczyć granicę między życiem i śmiercią?


General
Complete name : The.Illusionist.avi
Format : AVI
Format/Info : Audio Video Interleave
Format profile : OpenDML
File size : 3.19 GiB
Duration : 1h 48mn
Overall bit rate : 4 197 Kbps
Writing application : AVI-Mux GUI 1.17.8.3, Feb 16 201019:42:50

Video
ID : 0
Format : MPEG-4 Visual
Format profile : Advanced Simple@L5
Format settings, BVOP : Yes
Format settings, QPel : No
Format settings, GMC : No warppoints
Format settings, Matrix : Default (H.263)
Codec ID : XVID
Codec ID/Hint : XviD
Duration : 1h 48mn
Bit rate : 4 000 Kbps
Width : 1 280 pixels
Height : 688 pixels
Display aspect ratio : 1.860
Frame rate : 23.976 fps
Color space : YUV
Chroma subsampling : 4:2:0
Bit depth : 8 bits
Scan type : Progressive
Compression mode : Lossy
Bits/(Pixel*Frame) : 0.189
Stream size : 3.04 GiB (95%)
Writing library : XviD 1.2.1 (UTC 2008-12-04)

Audio
ID : 1
Format : AC-3
Format/Info : Audio Coding 3
Mode extension : CM (complete main)
Codec ID : 2000
Duration : 1h 48mn
Bit rate mode : Constant
Bit rate : 192 Kbps
Channel(s) : 2 channels
Channel positions : Front: L R
Sampling rate : 48.0 KHz
Bit depth : 16 bits
Compression mode : Lossy
Stream size : 150 MiB (5%)
Alignment : Aligned on interleaves
Interleave, duration : 64 ms (1.53 video frames)
Interleave, preload duration : 192 ms
Title : audio


Iluzjonista / The Illusionist (2006) PL.720p.BRRip.XviD.AC3-SJ

Iluzjonista / The Illusionist (2006) PL.720p.BRRip.XviD.AC3-SJ Iluzjonista / The Illusionist (2006) PL.720p.BRRip.XviD.AC3-SJ

Iluzjonista / The Illusionist (2006) PL.720p.BRRip.XviD.AC3-SJ
Uwaga! Linki nie zakodowane tylko dla zarejestrowanych użytkowników!

Nie masz konta? Zarejestruj się za darmo!
----------------
Links are not encoded only for registered users only! Plese login or register!



Użytkownik VIP

YOMATAUploader

#1 | Dodany: 22 Luty 2013 23:02




Iluzjonista / The Illusionist (2006)

PL.DVDRip.XviD | Lektor PL


### DANE TECHNICZNE ###

Format : AVI at 937 Kbps
Lenght : 700 MiB for 1h 44mn 26s 688ms

Video #0 : MPEG-4 Visual at 800 Kbps
Aspect : 576 x 320 (16:9) at 25.000 fps

Audio #0 : MPEG Audio at 128 Kbps
Infos : 2 kanal(y), 48.0 KHz


TYLKO 1 LINK (BEZ KOMPRESJI,ściągasz i oglądasz) ok

Uwaga! Linki nie zakodowane tylko dla zarejestrowanych użytkowników!

Nie masz konta? Zarejestruj się za darmo!
----------------
Links are not encoded only for registered users only! Plese login or register!


Uwaga! Linki nie zakodowane tylko dla zarejestrowanych użytkowników!

Nie masz konta? Zarejestruj się za darmo!
----------------
Links are not encoded only for registered users only! Plese login or register!


Uwaga! Linki nie zakodowane tylko dla zarejestrowanych użytkowników!

Nie masz konta? Zarejestruj się za darmo!
----------------
Links are not encoded only for registered users only! Plese login or register!


Uwaga! Linki nie zakodowane tylko dla zarejestrowanych użytkowników!

Nie masz konta? Zarejestruj się za darmo!
----------------
Links are not encoded only for registered users only! Plese login or register!






Informacje

Jeżeli chcesz skomentować artykuł musisz być zarejestrowany na stronie.